Ремпейдж / Rampage (2018) Remux 1080p Ukr/Eng | Sub Eng

Нові коментарі

Нова тема   Відповісти
Автор Повідомлення
staf777 
Попереджень: 1
Попереджень: 1 


З нами з: 16.11.16
Востаннє: 19.10.18
Повідомлень: 1637

2018-07-05 16:39  
Ремпейдж / Rampage (2018) Remux 1080p Ukr/Eng | Sub Eng

Ремпейдж / Rampage (2018) Remux 1080p Ukr/Eng | Sub Eng


Жанр: бойовик, пригодницький, фантастика
Країна: США



Кінокомпанія: Warner Bros. Pictures, New Line Cinema
Режисер: Бред Пейтон
Актори: Двейн Джонсон, Наомі Гарріс, Джеффрі Дін Морґан, Малін Акерман, Джо Манґаньєлло, Марлі Шелтон, Вілл Юн Лі, Джейк Лейсі, Джек Куейд, Бріенн Хілл та інші

Сюжет:
Приматолог Девіс Окойе займається боротьбою з браконьєрством. Йому складно знайти спільну мову з людьми, тому найкращий його друг – це горила на ім'я Джордж. Хтось винаходить страшний вірус і заражає цим Джорджа, а разом з ним вовка і крокодила. Тварини виростають до небувалих розмірів, без причин впадають в лють і їх неможливо зупинити. Руйнуючи все на своєму шляху, троє звірів створюють хаос по всій північній Америці. Девіс більше будь-кого зацікавлений в тому, щоб знайти антидот. Він не просто прагне врятувати планету від руйнувань, він хоче повернути свого кращого друга. Ну і непогано було б зрозуміти хто ж винайшов цей вірус.


Тривалість: 01:47:14
Якість: Remux 1080p
Відео:
кодек:
розмір кадру: 1920x1080
бітрейт: 23,7 Мб/с

Аудіо # 1:
мова: українська
переклад: професійний дубльований | студія Postmodern
кодек: 2.0 (стерео)
бітрейт: 192 кб/с

Аудіо # 2:
мова: англійська
переклад: оригінал
кодек: TrueHD, 7.1
бітрейт: 3279 кб/с

Аудіо # 3:
мова: англійська
переклад: оригінал
кодек: 5.1
бітрейт: 448 кб/с

Субтитри # 1:(форсовані)
мова: українська
тип: програмні (м'які)
формат: *.srt

Субтитри # 2:
мова: англійська
тип: програмні (м'які)
формат: *.srt
Info
General
Unique ID : 284125766648275496682783584478282343909 (0xD5C0A1D798AB204E115FCDE668EF65E5)
Complete name : G:\Фантастика\Rampage (2018) Remux 1080p [Ukr][Eng][Sub Eng][Hurtom].
Format :
Format version : Version 4 / Version 2
File size : 20.7 GiB
Duration : 1 h 47 min
Overall bit rate mode : Variable
Overall bit rate : 27.6 Mb/s
Movie name : Rampage (2018) Remux 1080p [Ukr][Eng][Sub Eng][Hurtom]
Encoded date : UTC 2018-07-05 15:04:22
Writing application : v24.0.0 ('Beyond The Pale') 64-bit
Writing library : libebml v1.3.6 + v1.4.9
Cover : Yes
Attachments : cover.jpg / cover.jpg

Video
ID : 1
Format : AVC
Format/Info : Advanced Video Codec
Format profile : [email protected]
Format settings : CABAC / 4 Ref Frames
Format settings, CABAC : Yes
Format settings, ReFrames : 4 frames
Codec ID : V_MPEG4/ISO/AVC
Duration : 1 h 47 min
Bit rate mode : Variable
Bit rate : 23.7 Mb/s
Maximum bit rate : 28.0 Mb/s
Width : 1 920 pixels
Height : 1 080 pixels
Display aspect ratio : 16:9
Frame rate mode : Constant
Frame rate : 23.976 (24000/1001) FPS
Color space : YUV
Chroma subsampling : 4:2:0
Bit depth : 8 bits
Scan type : Progressive
Bits/(Pixel*Frame) : 0.476
Stream size : 17.7 GiB (86%)
Language : English
Default : Yes
Forced : No

Audio #1
ID : 2
Format : AC-3
Format/Info : Audio Coding 3
Codec ID : A_AC3
Duration : 1 h 47 min
Bit rate mode : Constant
Bit rate : 192 kb/s
Channel(s) : 2 channels
Channel positions : Front: L R
Sampling rate : 48.0 kHz
Frame rate : 31.250 FPS (1536 SPF)
Bit depth : 16 bits
Compression mode : Lossy
Stream size : 147 MiB (1%)
Title : 2.0 @ 192 kbps
Language : Ukrainian
Service kind : Complete Main
Default : Yes
Forced : Yes

Audio #2
ID : 3
Format : TrueHD
Format profile : TrueHD+Atmos / TrueHD
Codec ID : A_TRUEHD
Duration : 1 h 47 min
Bit rate mode : Variable
Bit rate : 3 279 kb/s
Maximum bit rate : 5 205 kb/s
Channel(s) : Object Based / 8 channels
Channel positions : Object Based / Front: L C R, Side: L R, Back: L R, LFE
Sampling rate : / 48.0 kHz
Frame rate : 1 200.000 FPS (40 SPF)
Compression mode : Lossless
Stream size : 2.46 GiB (12%)
Title : Original
Language : English
Default : No
Forced : No

Audio #3
ID : 4
Format : AC-3
Format/Info : Audio Coding 3
Codec ID : A_AC3
Duration : 1 h 47 min
Bit rate mode : Constant
Bit rate : 448 kb/s
Channel(s) : 6 channels
Channel positions : Front: L C R, Side: L R, LFE
Sampling rate : 48.0 kHz
Frame rate : 31.250 FPS (1536 SPF)
Bit depth : 16 bits
Compression mode : Lossy
Stream size : 344 MiB (2%)
Language : English
Service kind : Complete Main
Default : No
Forced : No

Text #1
ID : 5
Format : UTF-8
Codec ID : S_TEXT/UTF8
Codec ID/Info : UTF-8 Plain Text
Duration : 1 h 46 min
Bit rate : 2 b/s
Count of elements : 37
Stream size : 2.07 KiB (0%)
Title : Forced
Language : Ukrainian
Default : Yes
Forced : Yes

Text #2
ID : 6
Format : UTF-8
Codec ID : S_TEXT/UTF8
Codec ID/Info : UTF-8 Plain Text
Duration : 1 h 37 min
Bit rate : 56 b/s
Count of elements : 1352
Stream size : 40.6 KiB (0%)
Language : English
Default : No
Forced : No

Menu
00:00:00.000 : en:00:00:00.000
00:12:58.528 : en:00:12:58.528
00:19:56.278 : en:00:19:56.278
00:29:53.291 : en:00:29:53.291
00:40:35.391 : en:00:40:35.391
00:49:10.906 : en:00:49:10.906
01:02:38.171 : en:01:02:38.171
01:10:37.650 : en:01:10:37.650
01:20:10.472 : en:01:20:10.472
01:29:23.608 : en:01:29:23.608
01:39:43.186 : en:01:39:43.186
Скріншоти




Джерело: & &
Особиста оцінка: 0 - не дивився


Золотий реліз (завантажене не впливає на рейтинг)
 Трекер:    Зареєстрований   

Завантажити / скачати фільм українською



відео для новачків



 Зареєстрований:   2018-07-05 18:17
 Розмір:   20.71 GB 
 Оцінка фільму:   8.9/10 (Голосів: 22)
   
Інші релізи
   Ремпейдж / Rampage (2018) 1080p H.265 Ukr/Eng | Sub Eng ukr_anonymous  14 / 4   4.18 GB   2018-08-05 19:45 
   Ремпейдж / Rampage (2018) Ukr/Eng 11FrYkT  74 / 0   1.42 GB   2018-07-04 22:00 
   Ремпейдж / Rampage (2018) 720p Ukr/Eng | Sub Eng 11FrYkT  27 / 2   4.96 GB   2018-07-02 21:30 
   Ремпейдж / Rampage (2018) 1080p Ukr/Eng | Sub Eng staf777  25 / 0   10.96 GB   2018-07-02 13:06 
   Ремпейдж / Rampage (2018) AVC Ukr/Eng | Sub Eng uafilm.tv  43 / 2   1.45 GB   2018-07-02 00:16 
bot 
робот


З нами з: 30.09.07
Востаннє: 26.05.05
Повідомлень: 19962

2018-07-05 18:17  
Тему перенесено з Анонси релізів до форуму Фільми в HD


staf777

L`viv 
Забанено
Забанено


З нами з: 03.06.18
Востаннє: 12.07.18
Повідомлень: 29

2018-07-06 10:55  
Дякую.
Ремукси з бітрейтом 20+ це благо.

mihail91 
Новенький


З нами з: 25.09.18
Востаннє: 19.10.18
Повідомлень: 4

2018-09-26 09:19  
Чудовий фільм.
Ваш часовий пояс: GMT + 2 Години

Нова тема   Відповісти