Статус: Update / Status Update (2018) 1080p Ukr/Eng | Sub Eng

Нові коментарі

Нова тема   Відповісти
Автор Повідомлення
staf777 
Відео Гуртом - підтримка та поширення
Відео Гуртом - підтримка та поширення


З нами з: 16.11.16
Востаннє: 18.11.19
Повідомлень: 3031

2018-07-04 22:52  
Статус: Update / Status Update (2018) 1080p Ukr/Eng | Sub Eng

Статус: Update / Status Update (2018) 1080p Ukr/Eng | Sub Eng


Жанр: комедія, фентезі
Країна: США, Канада, Китай



Кінокомпанія: Offspring Entertainment, Brightlight Pictures, DNA Pictures, Heyi Capital
Режисер: Скотт Спір
Актори: Росс Лінч, Олівія Голт, Кортні Ітон, Маркіян Тарасюк, Ґреґґ Салкін, Харві Гільєн, Ніколас Лі, Фамке Янссен, Джон Майкл Хіггінс, Венді МакЛендон-Кові та інщі

Сюжет:
Старшокласник Кайл щойно перевівся до нової школи. Лише місцевий невдаха прийняв його з розкритими обіймами. Більш успішні хлопці при першій же зустрічі розбили його телефон. Дивакуватий незнайомець із телефонного сервісу встановив на новий гаджет Кайла якийсь додаток. Тепер будь-яке вигадане повідомлення, опубліковане Кайлом, одразу стає реальністю.


Тривалість: 01:46:24
Якість: 1080p
Відео:
кодек:
розмір кадру: 1920x804
бітрейт: 8500 кб/с

Аудіо # 1:
мова: українська
переклад: професійний дубльований | студія AAA-Sound
кодек: 2.0 [стерео]
бітрейт: 192 кб/с

Аудіо # 2:
мова: англійська
переклад: оригінал
кодек: 5.1
бітрейт: 1509 кб/с

Субтитри # 1-2: (повні, SDH)
мова: англійська
тип: програмні (м'які)
формат: *.srt
Info
General
Unique ID : 206520566566587009686827011224951292674 (0x9B5E6A116A63C52990072E55CD138302)
Complete name : N:\Status Update (2018) 1080p [UKR][ENG][Hurtom].
Format :
Format version : Version 4 / Version 2
File size : 7.61 GiB
Duration : 1 h 46 min
Overall bit rate : 10.2 Mb/s
Movie name : Status Update (2018) 1080p [UKR][ENG][Hurtom]
Encoded date : UTC 2018-11-23 20:37:28
Writing application : v24.0.0 ('Beyond The Pale') 64-bit
Writing library : libebml v1.3.6 + v1.4.9
Attachments : posterab9bff1e0dc7d0f8.jpg

Video
ID : 1
Format : AVC
Format/Info : Advanced Video Codec
Format profile : [email protected]
Format settings : CABAC / 5 Ref Frames
Format settings, CABAC : Yes
Format settings, ReFrames : 5 frames
Codec ID : V_MPEG4/ISO/AVC
Duration : 1 h 46 min
Bit rate : 8 500 kb/s
Width : 1 920 pixels
Height : 804 pixels
Display aspect ratio : 2.40:1
Frame rate mode : Constant
Frame rate : 23.976 (24000/1001) FPS
Color space : YUV
Chroma subsampling : 4:2:0
Bit depth : 8 bits
Scan type : Progressive
Bits/(Pixel*Frame) : 0.230
Stream size : 6.34 GiB (83%)
Title : selezen
Writing library : core 148 r2705kMod 3f5ed56
Encoding settings : cabac=1 / ref=5 / deblock=1:-2:-2 / analyse=0x3:0x133 / me=umh / subme=10 / psy=1 / fade_compensate=0.00 / psy_rd=1.05:0.06 / mixed_ref=1 / me_range=32 / chroma_me=1 / trellis=2 / 8x8dct=1 / cqm=0 / deadzone=21,11 / fast_pskip=0 / chroma_qp_offset=-3 / threads=12 / lookahead_threads=2 / sliced_threads=0 / nr=0 / decimate=0 / interlaced=0 / bluray_compat=0 / constrained_intra=0 / fgo=0 / bframes=8 / b_pyramid=2 / b_adapt=2 / b_bias=0 / direct=3 / weightb=1 / open_gop=0 / weightp=2 / keyint=240 / keyint_min=23 / scenecut=40 / intra_refresh=0 / rc_lookahead=50 / rc=2pass / mbtree=0 / bitrate=8500 / ratetol=1.0 / qcomp=0.60 / qpmin=0 / qpmax=51 / qpstep=4 / cplxblur=20.0 / qblur=0.5 / vbv_maxrate=50000 / vbv_bufsize=62500 / nal_hrd=none / filler=0 / ip_ratio=1.40 / pb_ratio=1.30 / aq=3:0.80
Language : English
Default : Yes
Forced : No

Audio #1
ID : 2
Format : AC-3
Format/Info : Audio Coding 3
Codec ID : A_AC3
Duration : 1 h 46 min
Bit rate mode : Constant
Bit rate : 192 kb/s
Channel(s) : 2 channels
Channel positions : Front: L R
Sampling rate : 48.0 kHz
Frame rate : 31.250 FPS (1536 SPF)
Bit depth : 16 bits
Compression mode : Lossy
Stream size : 147 MiB (2%)
Title : Dub [AAASound], 2.0 [stereo] 192 Kbps
Language : Ukrainian
Service kind : Complete Main
Default : Yes
Forced : Yes

Audio #2
ID : 3
Format :
Format/Info : Digital Theater Systems
Codec ID : A_DTS
Duration : 1 h 46 min
Bit rate mode : Constant
Bit rate : 1 509 kb/s
Channel(s) : 6 channels
Channel positions : Front: L C R, Side: L R, LFE
Sampling rate : 48.0 kHz
Frame rate : 93.750 FPS (512 SPF)
Bit depth : 16 bits
Compression mode : Lossy
Stream size : 1.13 GiB (15%)
Title : Original
Language : English
Default : No
Forced : No

Text #1
ID : 4
Format : UTF-8
Codec ID : S_TEXT/UTF8
Codec ID/Info : UTF-8 Plain Text
Duration : 1 h 42 min
Bit rate : 77 b/s
Count of elements : 1623
Stream size : 58.4 KiB (0%)
Title : Full
Language : English
Default : No
Forced : No

Text #2
ID : 5
Format : UTF-8
Codec ID : S_TEXT/UTF8
Codec ID/Info : UTF-8 Plain Text
Duration : 1 h 42 min
Bit rate : 80 b/s
Count of elements : 1693
Stream size : 60.7 KiB (0%)
Title : SDH
Language : English
Default : No
Forced : No

Menu
00:00:00.000 : :00:00:00.000
00:10:24.541 : :00:10:24.541
00:15:51.784 : :00:15:51.784
00:25:04.211 : :00:25:04.211
00:31:46.947 : :00:31:46.947
00:41:15.431 : :00:41:15.431
00:51:18.450 : :00:51:18.450
01:00:46.101 : :01:00:46.101
01:07:21.037 : :01:07:21.037
01:16:25.206 : :01:16:25.206
01:24:47.416 : :01:24:47.416
01:32:11.943 : :01:32:11.943
Скріншоти




Джерело: &
Особиста оцінка: 0 - не дивився


 Трекер:    Зареєстрований   

Завантажити / скачати фільм українською



відео для новачків



 Зареєстрований:   2018-11-23 22:51
 Розмір:   7.61 GB 
 Оцінка фільму:   7.7/10 (Голосів: 24)
   
Інші релізи
   Статус: Update / Status Update (2018) AVC Ukr/Eng | Sub Eng FaB0SS  3 / 0   2.03 GB   2019-07-29 22:18 
   Статус: Update / Status Update (2018) Remux 1080p Ukr/Eng | Sub Eng staf777  1 / 0   15.67 GB   2018-11-24 00:28 
   Статус: Update / Status Update (2018) 720р Ukr/Eng | Sub Eng 11FrYkT  2 / 0   3.72 GB   2018-11-23 22:33 
   Статус: Update / Status Update (2018) Ukr/Eng uafilm.tv  4 / 0   1.37 GB   2018-07-04 21:52 
EvGaS 
Відео Гуртом - субтитрування
Відео Гуртом - субтитрування


З нами з: 27.02.12
Востаннє: 31.07.19
Повідомлень: 5674

2018-07-05 03:05  
Цікаво, чому усім тутешнім школярам років за 25?
SaratRich 
VIP


З нами з: 29.05.12
Востаннє: 17.11.19
Повідомлень: 304

2018-07-05 18:31  
EvGaS написано:
Цікаво, чому усім тутешнім школярам років за 25?

Я скажу як прихильник теорії про масове навязання культури деградації. Щоб всіляка школота почувалася дорослішою і могла робити що заманеться (хоча вона і так це робить ) або щоб втрачали сприйняння справжіх себе і асоціювали із кимось дорослішим (тупішим). Або краще не забивати собі голову дурницями - це американці Wide grin

gesko 
Новенький


З нами з: 16.02.17
Востаннє: 18.11.19
Повідомлень: 18

2018-07-06 10:58  
Знаєте, випадково потрапив з дівчиною на цей фільм, то я Вас прошу не витрачайте час. Я даже не знаю чи була можливість пробити дно глибше..
bstefanyshyn 
Частий відвідувач


З нами з: 02.02.12
Востаннє: 17.11.19
Повідомлень: 26

2018-07-15 08:00  
gesko
Я думав я на дні, еле мені постукали знизу ))

staf777 
Відео Гуртом - підтримка та поширення
Відео Гуртом - підтримка та поширення


З нами з: 16.11.16
Востаннє: 18.11.19
Повідомлень: 3031

2018-11-23 22:54  
Замінив на 1080p 
Ваш часовий пояс: GMT + 2 Години

Нова тема   Відповісти