Трон ельфів / Throne of Elves (2016) 1080p Ukr/Chi | Sub Ukr/Eng

Нові коментарі

Нова тема   Відповісти
Автор Повідомлення
staf777 
Відео Гуртом - підтримка та поширення
Відео Гуртом - підтримка та поширення


З нами з: 16.11.16
Востаннє: 07.03.21
Повідомлень: 5117

2018-07-04 20:45  
Трон ельфів / Throne of Elves (2016) 1080p Ukr/Chi | Sub Ukr/Eng


Альтернативний постер

Жанр: мультфільм, фентезі
Країна: Китай, США



Кінокомпанія: Mili Pictures
Режисер: І Ге
Актори: Ешлі Боеттчер, Гілберт Боус, Гевін Хаммон, Джулі Натансон, Джон Олсон, Райан Поттер, Енн Рейтел, Кевін Майкл Річардсон, Аніка Ноні Роуз, Дженніфер Секігучі

Сюжет:
Юний воїн Ламберт отримує запрошення на весілля принцеси Країни Ельфів. Зрадівши можливістю знову побачитися з молодою ельфійкою Лійей, він збирається в дорогу на повітряному кораблі. В краю ельфів тим часом не все спокійно: володарка Темних Ельфів Олена планує порушити весільну церемонію, щоб, заставши зненацька придворних, захопити древній кристал Чорного Дракона.


Тривалість: 01:38:55
Якість: 1080p (Джерело - Throne.of.Elves.2016.BluRay.1080p..-HD.MA.5.1-HDChina)

Відео:
кодек:
розмір кадру: 1920x1080
бітрейт: 13 Mб/с

Аудіо # 1:
мова: українська
переклад: професійний дубльований
кодек: 2.0
бітрейт: 192 кб/с

Аудіо # 2:
мова: китайська
переклад: оригінал
кодек: 2.0
бітрейт: 445 кб/с

Субтитри:
мова: українська
тип: програмні (м'які)
формат: *.srt

Субтитри:
мова: англійська
тип: програмні (м'які)
формат: *.srt
Info
Код:

General
Unique ID                   : 236707885100401014423825118772695307040 (0xB21447C83649676481196F03C3FE9320)
Complete name               : G:\Майбутні релізи\Throne of Elves (2017) 1080p [UKR_CHI] [Hurtom].
Format                      :
Format version              : Version 4 / Version 2
File size                   : 9.43 GiB
Duration                    : 1 h 38 min
Overall bit rate            : 13.6 Mb/s
Encoded date                : UTC 2018-07-04 18:19:06
Writing application         : v9.8.0 ('Kuglblids') 64bit
Writing library             : libebml v1.3.4 + v1.4.5
Cover                       : Yes
Attachments                 : cover.jpg

Video
ID                          : 1
Format                      : AVC
Format/Info                 : Advanced Video Codec
Format profile              : [email protected]
Format settings             : CABAC / 4 Ref Frames
Format settings, CABAC      : Yes
Format settings, ReFrames   : 4 frames
Codec ID                    : V_MPEG4/ISO/AVC
Duration                    : 1 h 38 min
Bit rate                    : 13.0 Mb/s
Width                       : 1 920 pixels
Height                      : 1 080 pixels
Display aspect ratio        : 16:9
Frame rate mode             : Constant
Frame rate                  : 23.976 (24000/1001) FPS
Color space                 : YUV
Chroma subsampling          : 4:2:0
Bit depth                   : 8 bits
Scan type                   : Progressive
Bits/(Pixel*Frame)          : 0.261
Stream size                 : 8.98 GiB (95%)
Writing library             : core 148 r2744kMod b97ae06
Encoding settings           : cabac=1 / ref=4 / deblock=1:-1:-1 / analyse=0x3:0x133 / me=umh / subme=11 / psy=1 / fade_compensate=0.00 / psy_rd=0.80:0.00 / mixed_ref=1 / me_range=64 / chroma_me=1 / trellis=2 / 8x8dct=1 / cqm=0 / deadzone=21,11 / fast_pskip=0 / chroma_qp_offset=-2 / threads=24 / lookahead_threads=4 / sliced_threads=0 / nr=0 / decimate=0 / interlaced=0 / bluray_compat=0 / constrained_intra=0 / bframes=8 / b_pyramid=2 / b_adapt=2 / b_bias=0 / direct=3 / weightb=1 / open_gop=0 / weightp=2 / keyint=240 / keyint_min=2 / scenecut=40 / intra_refresh=0 / rc=2pass / mbtree=0 / bitrate=13000 / ratetol=1.0 / qcomp=0.70 / qpmin=0 / qpmax=69 / qpstep=4 / cplxblur=20.0 / qblur=0.5 / ip_ratio=1.30 / pb_ratio=1.20 / aq=3:1.10
Language                    : Chinese
Default                     : Yes
Forced                      : No

Audio #1
ID                          : 2
Format                      : AC-3
Format/Info                 : Audio Coding 3
Codec ID                    : A_AC3
Duration                    : 1 h 38 min
Bit rate mode               : Constant
Bit rate                    : 192 kb/s
Channel(s)                  : 2 channels
Channel positions           : Front: L R
Sampling rate               : 48.0 kHz
Frame rate                  : 31.250 FPS (1536 SPF)
Bit depth                   : 16 bits
Compression mode            : Lossy
Stream size                 : 136 MiB (1%)
Language                    : Ukrainian
Service kind                : Complete Main
Default                     : Yes
Forced                      : Yes

Audio #2
ID                          : 3
Format                      :
Format/Info                 : Advanced Audio Codec
Format profile              : LC
Codec ID                    : A_AAC-2
Duration                    : 1 h 38 min
Bit rate                    : 445 kb/s
Channel(s)                  : 2 channels
Channel positions           : Front: L R
Sampling rate               : 48.0 kHz
Frame rate                  : 46.875 FPS (1024 SPF)
Compression mode            : Lossy
Stream size                 : 315 MiB (3%)
Title                       : Original
Language                    : Chinese
Default                     : No
Forced                      : No

Text #1
ID                          : 4
Format                      : UTF-8
Codec ID                    : S_TEXT/UTF8
Codec ID/Info               : UTF-8 Plain Text
Duration                    : 1 h 28 min
Bit rate                    : 56 b/s
Count of elements           : 676
Stream size                 : 37.0 KiB (0%)
Language                    : Ukrainian
Default                     : No
Forced                      : No

Text #2
ID                          : 5
Format                      : UTF-8
Codec ID                    : S_TEXT/UTF8
Codec ID/Info               : UTF-8 Plain Text
Duration                    : 1 h 29 min
Bit rate                    : 32 b/s
Count of elements           : 878
Stream size                 : 21.3 KiB (0%)
Language                    : English
Default                     : No
Forced                      : No

Menu
00:00:00.000                : en:00:00:00.000
00:08:31.594                : en:00:08:31.594
00:17:43.896                : en:00:17:43.896
00:23:41.795                : en:00:23:41.795
00:31:25.592                : en:00:31:25.592
00:39:37.083                : en:00:39:37.083
00:47:18.461                : en:00:47:18.461
00:58:01.395                : en:00:58:01.395
01:05:58.371                : en:01:05:58.371
Скріншоти




Підтримати купівлю інших фільмів можна тут.


Джерело:
Особиста оцінка: 0 - не дивився


 Трекер:    Зареєстрований   

Завантажити / скачати мультфільм українською



відео для новачків



 Зареєстрований:   2018-07-04 20:46
 Розмір:   9.43 GB 
 Оцінка мультфільму:   7.6/10 (Голосів: 15)
   
Інші релізи
   Трон ельфів / Throne of Elves (2016) 720p Ukr/Chi | Sub Ukr/Eng 11FrYkT  5 / 0   2.76 GB   2018-06-04 18:49 
   Трон ельфів / Throne of Elves (2016) Ukr/Chi | Sub Ukr/Eng Electroz  10 / 0   1.46 GB   2018-06-02 19:43 
ntrader 
Свій


З нами з: 31.05.16
Востаннє: 03.03.21
Повідомлень: 71

2018-07-16 07:17  
Гарна графіка. В 3D виглядає мабуть круто. Але мультфільм 10-12+ або для дорослих. Явно не дитячий
roalad 
VIP


З нами з: 22.06.12
Востаннє: 06.03.21
Повідомлень: 420

2019-05-01 11:30  
На роздачі вказано 2017 рік, має бути 2016:
https://www.imdb.com/title/tt5425264/

Ваш часовий пояс: GMT + 2 Години

Нова тема   Відповісти