Ван-Гог - Колекція (3 альбоми) - 1997-2004 () Pop/Techno/Dance

Нові коментарі

Нова тема   Відповісти
Останній раз роздавалося artemiyua (2018-12-09)
Автор Повідомлення
apelja 
Новенький


З нами з: 02.05.09
Востаннє: 03.12.18
Повідомлень: 18

2018-07-04 14:12  
Ван-Гог - Колекція (3 альбоми) - 1997-2004 () Pop/Techno/Dance

Ван-Гог - Колекція (3 альбоми) - 1997-2004 () Pop/Techno/Dance


Стиль: Pop/Techno/Dance
Країна, місто: Україна
Сайти: Офіційний сайт
Видавець: JRC, NAC
Виконавці:
1997
Ігор Добрянський — музика, тексти, вокал, аранжування, програмування.
Богдан Козак - менеджмент, бас-гітара, технічне забезпечення
Віктор Макуц — клавішні інструменти
Р. Мельник - клавішні інструменти
2001
Ігор Добрянський - менеджмент
Юрій Решетар - музика та ідеї
2004
Ігор Добрянський — музика, тексти, вокал, аранжування, програмування.
Павло Сноч — клавішні інструменти, бек-вокал.
Роман Кондратишин - клавішні інструменти, бек-вокал
Юрій Решетар — клавішні інструменти, бек-вокал.
Іван Кузмінський - клавішні інструменти, бек-вокал
Олег Петровіч — клавішні інструменти, беквокал.

Альбоми:
    "Екстра-клас" (1997)


    Рік видання: 1997
    Видавець (лейбл): NAC
    Номер по каталогу: 04 30 04
    Тривалість: 45:01

    01. Я вже не твій
    02. Серця мінор
    03. Ілюзії
    04. Сховай мене від дощу (remix)
    05. Екстра-клас
    06. Проблеми
    07. То було так
    08. Еко-прес
    09. Далеко
    10. Хімія
    "Вміст індексної карти (.CUE)"
    [pre]
    REM GENRE Eurodance
    REM DATE 1997
    REM DISCID 880A8D0A
    REM COMMENT "ExactAudioCopy v1.3"
    PERFORMER "Ван-Гог"
    TITLE "Екстра-клас"
    REM COMPOSER ""
    FILE "Ван-Гог - Екстра-клас." WAVE
    TRACK 01 AUDIO
    TITLE "Я вже не твій"
    PERFORMER "Ван-Гог"
    REM COMPOSER ""
    INDEX 01 00:00:00
    TRACK 02 AUDIO
    TITLE "Серця мінор"
    PERFORMER "Ван-Гог"
    REM COMPOSER ""
    INDEX 00 04:43:08
    INDEX 01 04:45:45
    TRACK 03 AUDIO
    TITLE "Ілюзії"
    PERFORMER "Ван-Гог"
    REM COMPOSER ""
    INDEX 00 09:27:57
    INDEX 01 09:30:19
    TRACK 04 AUDIO
    TITLE "Сховай мене від дощу (remix)"
    PERFORMER "Ван-Гог"
    REM COMPOSER ""
    INDEX 00 13:43:24
    INDEX 01 13:45:61
    TRACK 05 AUDIO
    TITLE "Екстра-клас"
    PERFORMER "Ван-Гог"
    REM COMPOSER ""
    INDEX 00 18:00:53
    INDEX 01 18:03:15
    TRACK 06 AUDIO
    TITLE "Проблеми"
    PERFORMER "Ван-Гог"
    REM COMPOSER ""
    INDEX 00 22:41:22
    INDEX 01 22:43:59
    TRACK 07 AUDIO
    TITLE "То було так"
    PERFORMER "Ван-Гог"
    REM COMPOSER ""
    INDEX 00 26:31:35
    INDEX 01 26:33:72
    TRACK 08 AUDIO
    TITLE "Еко-прес"
    PERFORMER "Ван-Гог"
    REM COMPOSER ""
    INDEX 00 30:50:46
    INDEX 01 30:53:08
    TRACK 09 AUDIO
    TITLE "Далеко"
    PERFORMER "Ван-Гог"
    REM COMPOSER ""
    INDEX 00 35:28:40
    INDEX 01 35:31:02
    TRACK 10 AUDIO
    TITLE "Хімія"
    PERFORMER "Ван-Гог"
    REM COMPOSER ""
    INDEX 00 39:58:43
    INDEX 01 40:01:05
    [/pre]
    "VINCENT «Impression»" (2001)


    Рік видання: 2001
    Видавець (лейбл): JRC
    Номер по каталогу: 01001-2
    Тривалість: 41:14

    01. Erotomania
    02. Nostalgia
    03. Novel Tibet
    04. Imprompty
    05. Perpetuum Mobile
    06. East Wind
    07. In Lyrical Mood
    08. In Despair I Search For Love
    "Вміст індексної карти (.CUE)"
    [pre]
    REM GENRE Instrumental
    REM DATE 2001
    REM DISCID 6F09AA08
    REM COMMENT "ExactAudioCopy v1.3"
    PERFORMER "Van-Gog (Vincent)"
    TITLE "Impression"
    REM COMPOSER ""
    FILE "Van-Gog (Vincent) - Impression." WAVE
    TRACK 01 AUDIO
    TITLE "Erotomania"
    PERFORMER "Van-Gog (Vincent)"
    REM COMPOSER ""
    INDEX 01 00:00:00
    TRACK 02 AUDIO
    TITLE "Nostalgia"
    PERFORMER "Van-Gog (Vincent)"
    REM COMPOSER ""
    INDEX 01 06:30:52
    TRACK 03 AUDIO
    TITLE "Novel Tibet"
    PERFORMER "Van-Gog (Vincent)"
    REM COMPOSER ""
    INDEX 01 10:36:44
    TRACK 04 AUDIO
    TITLE "Imprompty"
    PERFORMER "Van-Gog (Vincent)"
    REM COMPOSER ""
    INDEX 01 16:29:22
    TRACK 05 AUDIO
    TITLE "Perpetuum mobile"
    PERFORMER "Van-Gog (Vincent)"
    REM COMPOSER ""
    INDEX 01 21:00:64
    TRACK 06 AUDIO
    TITLE "East wind"
    PERFORMER "Van-Gog (Vincent)"
    REM COMPOSER ""
    INDEX 01 25:07:09
    TRACK 07 AUDIO
    TITLE "In lyrical mood"
    PERFORMER "Van-Gog (Vincent)"
    REM COMPOSER ""
    INDEX 01 29:43:03
    TRACK 08 AUDIO
    TITLE "In despair i search for love"
    PERFORMER "Van-Gog (Vincent)"
    REM COMPOSER ""
    INDEX 01 35:25:12
    [/pre]
    "Вибране" (2004)


    Рік видання: 2004
    Видавець (лейбл): JRC
    Номер по каталогу: 04110-2
    Тривалість: 01:17:40

    01. Хто є хто
    02. Клітка
    03. Контрасти
    04. Хімія
    05. Зовсім один
    06. Пройде
    07. Чорні квіти (remix)
    08. Далеко
    09. Мені зле (remix)
    10. Паранойя
    11. Серця мінор
    12. Спомин (remix)
    13. Шукаю
    14. Я сам (remix)
    15. Твоє імя
    16. Зроби так (remix)
    17. SOS (remix)
    18. Не відлітай (remix)
    "Вміст індексної карти (.CUE)"
    [pre]
    REM GENRE Eurodance
    REM DATE 2004
    REM DISCID F3123412
    REM COMMENT "ExactAudioCopy v1.3"
    PERFORMER "Ван-Гог"
    TITLE "Вибране"
    REM COMPOSER ""
    FILE "Ван-Гог - Вибране." WAVE
    TRACK 01 AUDIO
    TITLE "Хто є хто"
    PERFORMER "Ван-Гог"
    REM COMPOSER ""
    INDEX 01 00:00:00
    TRACK 02 AUDIO
    TITLE "Клітка"
    PERFORMER "Ван-Гог"
    REM COMPOSER ""
    INDEX 01 03:49:20
    TRACK 03 AUDIO
    TITLE "Контрасти"
    PERFORMER "Ван-Гог"
    REM COMPOSER ""
    INDEX 01 08:20:70
    TRACK 04 AUDIO
    TITLE "Хімія"
    PERFORMER "Ван-Гог"
    REM COMPOSER ""
    INDEX 01 12:58:51
    TRACK 05 AUDIO
    TITLE "Зовсім один"
    PERFORMER "Ван-Гог"
    REM COMPOSER ""
    INDEX 01 17:58:64
    TRACK 06 AUDIO
    TITLE "Пройде"
    PERFORMER "Ван-Гог"
    REM COMPOSER ""
    INDEX 01 22:34:59
    TRACK 07 AUDIO
    TITLE "Чорні квіти"
    PERFORMER "Ван-Гог"
    REM COMPOSER ""
    INDEX 01 26:32:11
    TRACK 08 AUDIO
    TITLE "Далеко"
    PERFORMER "Ван-Гог"
    REM COMPOSER ""
    INDEX 01 30:51:48
    TRACK 09 AUDIO
    TITLE "Мені зле"
    PERFORMER "Ван-Гог"
    REM COMPOSER ""
    INDEX 01 35:16:51
    TRACK 10 AUDIO
    TITLE "Паранойя"
    PERFORMER "Ван-Гог"
    REM COMPOSER ""
    INDEX 01 38:52:06
    TRACK 11 AUDIO
    TITLE "Серця мінор"
    PERFORMER "Ван-Гог"
    REM COMPOSER ""
    INDEX 01 42:58:15
    TRACK 12 AUDIO
    TITLE "Спомин"
    PERFORMER "Ван-Гог"
    REM COMPOSER ""
    INDEX 01 47:37:67
    TRACK 13 AUDIO
    TITLE "Шукаю"
    PERFORMER "Ван-Гог"
    REM COMPOSER ""
    INDEX 01 50:54:21
    TRACK 14 AUDIO
    TITLE "Я сам"
    PERFORMER "Ван-Гог"
    REM COMPOSER ""
    INDEX 01 55:17:33
    TRACK 15 AUDIO
    TITLE "Твоє ім'я"
    PERFORMER "Ван-Гог"
    REM COMPOSER ""
    INDEX 01 59:19:35
    TRACK 16 AUDIO
    TITLE "Зроби так"
    PERFORMER "Ван-Гог"
    REM COMPOSER ""
    INDEX 01 63:41:38
    TRACK 17 AUDIO
    TITLE "S.O.S."
    PERFORMER "Ван-Гог"
    REM COMPOSER ""
    INDEX 01 68:01:60
    TRACK 18 AUDIO
    TITLE "Не відлітай (remix)"
    PERFORMER "Ван-Гог"
    REM COMPOSER ""
    INDEX 01 72:21:27
    [/pre]

Мова: українська
Аудіо-кодек:
Бітрейт: ~1000 кб/с
Джерело: власні CD
"Додаткова інформація"

До дискографії розшукуються наступні альбоми:
1996 — «Не відлітай» (Unofficial Release)
1996 — «S.O.S.»
1998 — «Контрасти»
1998 — «Різдвяні гармонії»
Якщо Ви справді бажаєте підтримати українське - після прослуховування, якщо музика вам сподобалась, придбайте ліцензійний диск. Підтримаймо вітчизняних виконавців!


 Трекер:    Зареєстрований   

Завантажити / скачати українську музику



відео для новачків



 Зареєстрований:   2018-07-04 14:41
 Розмір:   1.28 GB 
 Оцінка музики:   8.3/10 (Голосів: 10)
   
yu1923 
Поважний учасник


З нами з: 30.01.12
Востаннє: 10.12.18
Повідомлень: 248

2018-08-07 19:51  
Модератори, місяць вже є релізу, де перевірка?
Модератори, де перевірка? Рік тре чекати?

vgoru 
Новенький


З нами з: 24.09.11
Востаннє: 22.10.18
Повідомлень: 3

2018-09-25 22:45  
Роздайте, будь ласка
bigtiger 
Новенький


З нами з: 30.04.17
Востаннє: 05.12.18
Повідомлень: 2

2018-10-11 11:16  
Всюди 'Не відлітай' з S.O.S міксована. Навіть, коли встиг з еха скачати, там теж таке. Оригінал пам'ятаю ще з касети.
apelja 
Новенький


З нами з: 02.05.09
Востаннє: 03.12.18
Повідомлень: 18

2018-10-11 13:11  
bigtiger
потрібен перший альбом, там буде оригінал але де ж його взяти

Ваш часовий пояс: GMT + 2 Години

Нова тема   Відповісти