Лють / Fury (2014) mini 1080p H.265 Ukr/Eng | Sub Ukr/Eng

Нові коментарі

Нова тема   Відповісти
Автор Повідомлення
ukr_anonymous 
Попереджень: 1
Попереджень: 1 


З нами з: 17.04.18
Востаннє: 25.04.19
Повідомлень: 234

2018-07-04 11:32  
Лють / Fury (2014) mini 1080p H.265 Ukr/Eng | Sub Ukr/Eng

Лють / Fury (2014) mini 1080p H.265 Ukr/Eng | Sub Ukr/Eng
Альтернативний постер:

Лють / Fury (2014) mini 1080p H.265 Ukr/Eng | Sub Ukr/Eng


Жанр: екшн, драма, воєнний
Країна: США, Китай, Велика Британія



Кінокомпанія: Columbia Pictures, QED International, LStar Capital
Режисер: Девід Ейр / David Ayer
Актори: Бред Пітт / Brad Pitt, Шая ЛаБаф / Shia LaBeouf, Логан Лерман / Logan Lerman, Майкл Пенья / Michael Peña, Джон Бернтал / Jon Bernthal, Джим Перрак / Jim Parrack, Бред Вільям Генк / Brad William Henke, Джейсон Айзекс / Jason Isaacs, Скотт Іствуд / Scott Eastwood та інші

Сюжет:
Загартований у боях екіпаж танка "Шерман" під командуванням досвідченого командира Дона "Вояки" Коллієра (Бред Пітт) рухається у самісіньке серце нацистської Німеччини. Ворог відступає, але не здається. Сили нерівні і кожен бій може виявитися останнім. Отримавши надскладне завдання, екіпаж "Шермана" має зробити нелегкий вибір: прийняти бій чи рятувати власне життя.


Тривалість: 02:14:38
Якість: mini 1080p H.265

Відео:
кодек: H.265 (HEVC)
розмір кадру: 1920 х 804
бітрейт: 4249 кб/с
бітова глибина: 10 біт
Увага! Перед завантаженням переконайтесь, що ваш пристрій відтворення (та/або ПЗ) підтримує H.265 (HEVC)

Аудіо # 1:
мова: українська
переклад: професійний дубльований | студія LeDoyen
кодек: 5.1
бітрейт: 640 кб/с
Інформація про дубляж
Переклад: Олександр Шабельник
Режисер дубляжу: Іван Марченко
Звукорежисер: Нікіта Будаш
Звукорежисер перезапису: Боб Шевяков
Координатор проекту: Аліна Гаєвська
Військовий консультант: Дмитро Білокуров
Ролі дублювали: Андрій Твердак, Богдан-Гордій Бенюк, Іван Розін, Дмитро Гаврилов, Назар Задніпровський, Валерій Легін, Юрій Ребрик, Віктор Данилюк, Володимир Кокотунов, Володимир Канівець, Дмитро Сова та інші.

Фільм надано компанією Columbia Pictures, дубльовано студією LeDoyen на замовлення компанії B&H Film Distribution.
Аудіо # 2:
мова: англійська
переклад: оригінал
кодек: 5.1
бітрейт: 448 кб/с

Субтитри # 1:
мова: українська (Forced)
тип: програмні (м'які)
формат: *.srt

Субтитри # 2-4:
мова: англійська (Forced, Full, SDH)
тип: програмні (м'які)
формат: *.srt
Info
General
Unique ID : 75791346403434596686962517251112234766 (0x3904E1E21B93BD9C4F8071589F32EF0E)
Complete name : E:\video\Fury (2014) 1080p H.265 [UKR_ENG].
Format :
Format version : Version 4 / Version 2
File size : 5.02 GiB
Duration : 2 h 14 min
Overall bit rate : 5 340 kb/s
Movie name : Fury (2014)
Encoded date : UTC 2018-07-03 15:38:02
Writing application : v22.0.0 ('At The End Of The World') 64-bit
Writing library : libebml v1.3.5 + v1.4.8
Cover : Yes
Attachments : Cover.jpg

Video
ID : 1
Format : HEVC
Format/Info : High Efficiency Video Coding
Format profile : Main [email protected]@Main
Codec ID : V_MPEGH/ISO/HEVC
Duration : 2 h 14 min
Bit rate : 4 249 kb/s
Width : 1 920 pixels
Height : 804 pixels
Display aspect ratio : 2.40:1
Frame rate mode : Constant
Frame rate : 23.976 (24000/1001) FPS
Color space : YUV
Chroma subsampling : 4:2:0
Bit depth : 10 bits
Bits/(Pixel*Frame) : 0.115
Stream size : 4.00 GiB (80%)
Writing library : x265 2.8+19-bcdc610cf5f0:[Windows][GCC 7.3.0][64 bit] 10bit
Encoding settings : cpuid=1111039 / frame-threads=3 / numa-pools=8 / wpp / no-pmode / no-pme / no-psnr / no-ssim / log-level=2 / input-csp=1 / input-res=1920x804 / interlace=0 / total-frames=193680 / level-idc=0 / high-tier=1 / uhd-bd=0 / ref=4 / no-allow-non-conformance / no-repeat-headers / annexb / no-aud / no-hrd / info / hash=0 / no-temporal-layers / open-gop / min-keyint=23 / keyint=250 / gop-lookahead=0 / bframes=4 / b-adapt=2 / b-pyramid / bframe-bias=0 / rc-lookahead=25 / lookahead-slices=4 / scenecut=40 / radl=0 / no-intra-refresh / ctu=64 / min-cu-size=8 / rect / no-amp / max-tu-size=32 / tu-inter-depth=1 / tu-intra-depth=1 / limit-tu=0 / rdoq-level=2 / dynamic-rd=0.00 / no-ssim-rd / signhide / no-tskip / nr-intra=0 / nr-inter=0 / no-constrained-intra / strong-intra-smoothing / max-merge=3 / limit-refs=3 / limit-modes / me=3 / subme=3 / merange=57 / temporal-mvp / weightp / no-weightb / no-analyze-src-pics / deblock=0:0 / sao / no-sao-non-deblock / rd=4 / no-early-skip / rskip / no-fast-intra / no-tskip-fast / no-cu-lossless / no-b-intra / no-splitrd-skip / rdpenalty=0 / psy-rd=2.00 / psy-rdoq=1.00 / no-rd-refine / no-lossless / cbqpoffs=0 / crqpoffs=0 / rc=abr / bitrate=4250 / qcomp=0.60 / qpstep=4 / stats-write=0 / stats-read=2 / cplxblur=20.0 / qblur=0.5 / ipratio=1.40 / pbratio=1.30 / aq-mode=3 / aq-strength=1.00 / cutree / zone-count=0 / no-strict-cbr / qg-size=32 / no-rc-grain / qpmax=69 / qpmin=0 / no-const-vbv / sar=0 / overscan=0 / videoformat=5 / range=0 / colorprim=2 / transfer=2 / colormatrix=2 / chromaloc=0 / display-window=0 / max-cll=0,0 / min-luma=0 / max-luma=1023 / log2-max-poc-lsb=8 / vui-timing-info / vui-hrd-info / slices=1 / no-opt-qp-pps / no-opt-ref-list-length-pps / multi-pass-opt-rps / scenecut-bias=0.05 / no-opt-cu-delta-qp / aq-motion / no-hdr / no-hdr-opt / no-dhdr10-opt / no-idr-recovery-sei / analysis-reuse-level=5 / scale-factor=0 / refine-intra=0 / refine-inter=0 / refine-mv=0 / no-limit-sao / ctu-info=0 / no-lowpass-dct / refine-mv-type=0 / copy-pic=1 / max-ausize-factor=1.0 / no-dynamic-refine / no-single-sei
Default : Yes
Forced : No

Audio #1
ID : 2
Format : AC-3
Format/Info : Audio Coding 3
Codec ID : A_AC3
Duration : 2 h 14 min
Bit rate mode : Constant
Bit rate : 640 kb/s
Channel(s) : 6 channels
Channel positions : Front: L C R, Side: L R, LFE
Sampling rate : 48.0 kHz
Frame rate : 31.250 FPS (1536 SPF)
Bit depth : 16 bits
Compression mode : Lossy
Stream size : 616 MiB (12%)
Title : 5.1 @ 640 kbps
Language : Ukrainian
Service kind : Complete Main
Default : Yes
Forced : Yes

Audio #2
ID : 3
Format : AC-3
Format/Info : Audio Coding 3
Codec ID : A_AC3
Duration : 2 h 14 min
Bit rate mode : Constant
Bit rate : 448 kb/s
Channel(s) : 6 channels
Channel positions : Front: L C R, Side: L R, LFE
Sampling rate : 48.0 kHz
Frame rate : 31.250 FPS (1536 SPF)
Bit depth : 16 bits
Compression mode : Lossy
Stream size : 431 MiB (8%)
Title : 5.1 @ 448 kbps
Language : English
Service kind : Complete Main
Default : No
Forced : No

Text #1
ID : 4
Format : UTF-8
Codec ID : S_TEXT/UTF8
Codec ID/Info : UTF-8 Plain Text
Duration : 1 h 36 min
Bit rate : 3 b/s
Count of elements : 77
Stream size : 2.35 KiB (0%)
Title : Forced
Language : Ukrainian
Default : Yes
Forced : Yes

Text #2
ID : 5
Format : UTF-8
Codec ID : S_TEXT/UTF8
Codec ID/Info : UTF-8 Plain Text
Duration : 1 h 36 min
Bit rate : 1 b/s
Count of elements : 77
Stream size : 1.28 KiB (0%)
Title : Forced
Language : English
Default : No
Forced : No

Text #3
ID : 6
Format : UTF-8
Codec ID : S_TEXT/UTF8
Codec ID/Info : UTF-8 Plain Text
Duration : 2 h 3 min
Bit rate : 46 b/s
Count of elements : 1462
Stream size : 42.2 KiB (0%)
Title : Full
Language : English
Default : No
Forced : No

Text #4
ID : 7
Format : UTF-8
Codec ID : S_TEXT/UTF8
Codec ID/Info : UTF-8 Plain Text
Duration : 2 h 14 min
Bit rate : 51 b/s
Count of elements : 1916
Stream size : 50.7 KiB (0%)
Title : SDH
Language : English
Default : No
Forced : No

Menu
00:00:00.000 : en:Chapter 01
00:07:58.227 : en:Chapter 02
00:20:24.514 : en:Chapter 03
00:26:38.597 : en:Chapter 04
00:37:25.993 : en:Chapter 05
00:43:23.851 : en:Chapter 06
00:51:59.032 : en:Chapter 07
01:01:20.301 : en:Chapter 08
01:13:46.296 : en:Chapter 09
01:18:29.705 : en:Chapter 10
01:26:21.593 : en:Chapter 11
01:29:50.426 : en:Chapter 12
01:35:39.191 : en:Chapter 13
01:48:11.776 : en:Chapter 14
01:57:49.645 : en:Chapter 15
02:00:41.859 : en:Chapter 16
Скріншоти



Джерело:
Особиста оцінка: 8 - мені сподобалося


 Трекер:    Зареєстрований   

Завантажити / скачати фільм українською



відео для новачків



 Зареєстрований:   2018-07-04 11:32
 Розмір:   5.02 GB 
 Оцінка фільму:   9.9/10 (Голосів: 10)
   
Інші релізи
   Танцюй звідси! / Cuban Fury (2014) AVC 2xUkr/Eng | Sub Eng drop_plz  4 / 0   2.18 GB   2018-11-19 10:41 
   Танцюй звідси! / Cuban Fury (2014) Gelios  6 / 0   1.45 GB   2016-08-06 15:12 
   Лють / Fury (2014) AVC Ukr/Eng | Sub Eng BASTERD-94  3 / 1   2.18 GB   2015-05-09 21:30 
   Лють / Fury (2014) 720p-mini Drool  5 / 0   2.88 GB   2015-02-13 00:00 
   Лють / Fury (2014) 1080p Ukr/Eng | Sub Eng 11FrYkT  8 / 0   14.98 GB   2015-02-08 17:21 
   Лють / Fury (2014) AVC AngryBirdsUA  2 / 0   2.18 GB   2015-02-08 16:52 
   Лють / Fury (2014) Blu-ray 1080p CEE Ukr/Multi | Sub Eng/Multi smak2001  1 / 0   44.99 GB   2015-02-08 16:15 
   Лють / Fury (2014) patriot2305  14 / 0   2.18 GB   2015-02-08 10:28 
   Лють / Fury (2014) 720p Ukr/Eng | Sub Eng 11FrYkT  10 / 0   6.97 GB   2015-02-08 10:04 
Ваш часовий пояс: GMT + 2 Години

Нова тема   Відповісти