28 днів потому / 28 Days Later... (2002) AVC Ukr/Eng | Sub Ukr/Eng

Нові коментарі

Нова тема   Відповісти
Автор Повідомлення
staf777 
Попереджень: 1
Попереджень: 1 


З нами з: 16.11.16
Востаннє: 15.07.18
Повідомлень: 1244

2018-07-04 11:22  
28 днів потому / 28 Days Later... (2002) AVC Ukr/Eng | Sub Ukr/Eng

28 днів потому / 28 Days Later... (2002) AVC Ukr/Eng | Sub Ukr/Eng


Жанр: фантастика, трилер, жахи
Країна: Велика Британія



Кінокомпанія: DNA Films, British Film Council
Режисер: Денні Бойл
Актори: Кілліан Мерфі, Наомі Гарріс, Ноа Гантлі, Брендан Глісон, Меган Бернс, Крістофер Екклстон, Алекс Палмер

Сюжет:
Група «зелених» екстремістів проникає в центр дослідження приматів і випускає з секретної наукової лабораторії мавпу, заражену вірусом нестримної агресії. Смертельний вірус, що передається через кров за лічені секунди, приводить до миттєвого зараження і, стикаючись з будь-якою живою істотою, перетворює її на кровожерливого монстра.

Через 4 тижні вся Англія охоплена страшною епідемією: багато людей евакуювалися, інші шукають безпечні місця, в надії врятуватися. Ті, кому пощастило не заразитися, разом з групою військових ховаються в покинутому будинку. Разом їм належить розібратися в ситуації і спробувати її виправити...


Тривалість: 01:53:07
Якість: AVC
Відео:
кодек:
розмір кадру: 1024x544
бітрейт: 1801 кб/с

Аудіо # 1:
мова: українська
переклад: багатоголосий закадровий
кодек: 2.0
бітрейт: 192 кб/с

Аудіо # 2:
мова: англійська
переклад: оригінал
кодек: 5.1
бітрейт: 320 кб/с

Джерело озвучення:


Субтитри:
мова: українська
тип: програмні (м'які)
формат: *.srt

Субтитри:
мова: англійська
тип: програмні (м'які)
формат: *.srt
Info
General
Unique ID : 195447193988573293060221865014240957309 (0x9309C2A5F6B67C1CA48206D2177B537D)
Complete name : H:\» Українське озвучення » Фільми\28 Days Later (2002) AVC [Ukr, Eng, Sub Ukr, Eng [Hurtom].
Format :
Format version : Version 4 / Version 2
File size : 1.83 GiB
Duration : 1 h 53 min
Overall bit rate : 2 315 kb/s
Movie name : 28 Days Later... (2002) - The Jolly Roger by Pirat.Ca [zyyx]
Encoded date : UTC 2018-07-04 06:40:33
Writing application : v9.8.0 ('Kuglblids') 64bit
Writing library : libebml v1.3.4 + v1.4.5
Cover : Yes
Attachments : cover.jpg

Video
ID : 1
Format : AVC
Format/Info : Advanced Video Codec
Format profile : [email protected]
Format settings : CABAC / 12 Ref Frames
Format settings, CABAC : Yes
Format settings, ReFrames : 12 frames
Codec ID : V_MPEG4/ISO/AVC
Duration : 1 h 53 min
Bit rate : 1 801 kb/s
Width : 1 024 pixels
Height : 544 pixels
Display aspect ratio : 1.882
Frame rate mode : Constant
Frame rate : 23.976 (24000/1001) FPS
Color space : YUV
Chroma subsampling : 4:2:0
Bit depth : 8 bits
Scan type : Progressive
Bits/(Pixel*Frame) : 0.135
Stream size : 1.42 GiB (78%)
Title : JRG
Writing library : core 125 r2200 999b753
Encoding settings : cabac=1 / ref=12 / deblock=1:-1:-1 / analyse=0x3:0x133 / me=umh / subme=11 / psy=1 / psy_rd=1.00:0.10 / mixed_ref=1 / me_range=48 / chroma_me=1 / trellis=2 / 8x8dct=1 / cqm=0 / deadzone=21,11 / fast_pskip=0 / chroma_qp_offset=-3 / threads=32 / lookahead_threads=8 / sliced_threads=0 / nr=0 / decimate=1 / interlaced=0 / bluray_compat=0 / constrained_intra=0 / bframes=8 / b_pyramid=2 / b_adapt=2 / b_bias=0 / direct=3 / weightb=1 / open_gop=0 / weightp=2 / keyint=250 / keyint_min=23 / scenecut=40 / intra_refresh=0 / rc_lookahead=50 / rc=2pass / mbtree=1 / bitrate=1801 / ratetol=1.0 / qcomp=0.70 / qpmin=0 / qpmax=69 / qpstep=4 / cplxblur=20.0 / qblur=0.5 / ip_ratio=1.40 / aq=1:1.00
Language : English
Default : Yes
Forced : No

Audio #1
ID : 2
Format : AC-3
Format/Info : Audio Coding 3
Codec ID : A_AC3
Duration : 1 h 53 min
Bit rate mode : Constant
Bit rate : 192 kb/s
Channel(s) : 2 channels
Channel positions : Front: L R
Sampling rate : 48.0 kHz
Frame rate : 31.250 FPS (1536 SPF)
Bit depth : 16 bits
Compression mode : Lossy
Stream size : 155 MiB (8%)
Title : [UA-MVO-1+1]
Language : Ukrainian
Service kind : Complete Main
Default : Yes
Forced : Yes

Audio #2
ID : 3
Format : AC-3
Format/Info : Audio Coding 3
Codec ID : A_AC3
Duration : 1 h 53 min
Bit rate mode : Constant
Bit rate : 320 kb/s
Channel(s) : 6 channels
Channel positions : Front: L C R, Side: L R, LFE
Sampling rate : 48.0 kHz
Frame rate : 31.250 FPS (1536 SPF)
Bit depth : 16 bits
Compression mode : Lossy
Stream size : 259 MiB (14%)
Language : English
Service kind : Complete Main
Default : No
Forced : No

Text #1
ID : 4
Format : UTF-8
Codec ID : S_TEXT/UTF8
Codec ID/Info : UTF-8 Plain Text
Duration : 1 h 51 min
Bit rate : 53 b/s
Count of elements : 827
Stream size : 43.9 KiB (0%)
Language : Ukrainian
Default : No
Forced : No

Text #2
ID : 5
Format : UTF-8
Codec ID : S_TEXT/UTF8
Codec ID/Info : UTF-8 Plain Text
Duration : 1 h 46 min
Bit rate : 35 b/s
Count of elements : 1240
Stream size : 27.7 KiB (0%)
Language : English
Default : No
Forced : No
Скріншоти




Подяки:
Запис з ТБ: Sando7, robotron005
Синхронізація lenina4040
Субтитри з DVD: Soyer

Джерело: &
Особиста оцінка: 8 - мені сподобалося


Срібний реліз (на рейтинг впливає 50% завантаженого)
 Трекер:    Зареєстрований   

Завантажити / скачати фільм українською



відео для новачків



 Зареєстрований:   2018-07-04 12:42
 Розмір:   1.83 GB 
 Оцінка фільму:   9.9/10 (Голосів: 15)
   
Ваш часовий пояс: GMT + 2 Години

Нова тема   Відповісти