Готель “Ґранд Будапешт” / The Grand Budapest Hotel (2014) 1080p H.265 Ukr/Eng | Sub Ukr/Eng

Нові коментарі

Нова тема   Відповісти
Автор Повідомлення
ukr_anonymous 
Попереджень: 1
Попереджень: 1 


З нами з: 16.04.18
Востаннє: 08.09.19
Повідомлень: 234

2018-07-04 10:13  
Готель “Ґранд Будапешт” / The Grand Budapest Hotel (2014) 1080p H.265 Ukr/Eng | Sub Ukr/Eng

Готель “Ґранд Будапешт” / The Grand Budapest Hotel (2014) 1080p H.265 Ukr/Eng | Sub Ukr/Eng


Жанр: комедія
Країна: США, Німеччина



Кінокомпанія: Scott Rudin Productions, Indian Paintbrush, Studio Babelsberg
Режисер: Вес Андерсон / Wes Anderson
Актори: Рейф Файнс / Ralph Fiennes, Ф. Мюррей Абрагам / F. Murray Abraham, Едвард Нортон / Edward Norton, Матьє Амальрік / Mathieu Amalric, Сірша Ронан / Saoirse Ronan, Едріан Броуді / Adrien Brody, Віллем Дефо / Willem Dafoe та інші

Сюжет:
Картина розповість про легендарного конс'єржа популярного європейського готелю і простежить за його життям між двома світовими війнами, а також за його дружбою з юною співробітницею, яка стає його протеже.
Сюжет включає в себе крадіжку безцінної картини епохи Відродження, боротьбу за величезний спадок і потрясіння, що спіткали Європу під час першої половини XX століття...


Тривалість: 01:39:55
Якість:
Відео:
кодек: H.265 (HEVC)
розмір кадру: 1920 х 1080
бітрейт: 4 137 кб/с
бітова глибина: 10 біт
Увага! Перед завантаженням переконайтесь, що ваш пристрій відтворення (та/або ПЗ) підтримує H.265 (HEVC)

Аудіо # 1:
мова: українська
переклад: професійний дубльований
кодек: 2.0
бітрейт: 192 кб/с

Аудіо # 2:
мова: англійська
переклад: оригінал
кодек: 5.1
бітрейт: 448 кб/с

Субтитри # 1-2:
мова: українська (Forced, Full)
тип: програмні (м'які)
формат: *.srt

Субтитри # 3-5:
мова: англійська (Forced, Full, SDH)
тип: програмні (м'які)
формат: *.srt
Info
General
Unique ID : 116530829203831690362872455615105129293 (0x57AB05769719BE708B4E344E024ADB4D)
Complete name : E:\video\The Grand Budapest Hotel (2014) 1080p H.265 [UKR_ENG].
Format :
Format version : Version 4 / Version 2
File size : 3.34 GiB
Duration : 1 h 39 min
Overall bit rate : 4 779 kb/s
Movie name : The Grand Budapest Hotel (2014)
Encoded date : UTC 2018-07-03 09:26:10
Writing application : v22.0.0 ('At The End Of The World') 64-bit
Writing library : libebml v1.3.5 + v1.4.8
Cover : Yes
Attachments : Cover.jpg

Video
ID : 1
Format : HEVC
Format/Info : High Efficiency Video Coding
Format profile : Main [email protected]@Main
Codec ID : V_MPEGH/ISO/HEVC
Duration : 1 h 39 min
Bit rate : 4 137 kb/s
Width : 1 920 pixels
Height : 1 080 pixels
Display aspect ratio : 16:9
Frame rate mode : Constant
Frame rate : 23.976 (24000/1001) FPS
Color space : YUV
Chroma subsampling : 4:2:0
Bit depth : 10 bits
Bits/(Pixel*Frame) : 0.083
Stream size : 2.89 GiB (87%)
Writing library : x265 2.1+69-c97c64ab8b8e:[Windows][GCC 6.2.0][64 bit] 10bit
Encoding settings : cpuid=1173503 / frame-threads=2 / numa-pools=4 / wpp / no-pmode / no-pme / no-psnr / no-ssim / log-level=2 / input-csp=1 / input-res=1920x1080 / interlace=0 / total-frames=143737 / level-idc=0 / high-tier=1 / uhd-bd=0 / ref=4 / no-allow-non-conformance / no-repeat-headers / annexb / no-aud / no-hrd / info / hash=0 / no-temporal-layers / open-gop / min-keyint=23 / keyint=250 / bframes=4 / b-adapt=2 / b-pyramid / bframe-bias=0 / rc-lookahead=25 / lookahead-slices=4 / scenecut=40 / no-intra-refresh / ctu=64 / min-cu-size=8 / rect / no-amp / max-tu-size=32 / tu-inter-depth=1 / tu-intra-depth=1 / limit-tu=0 / rdoq-level=2 / signhide / no-tskip / nr-intra=0 / nr-inter=0 / no-constrained-intra / strong-intra-smoothing / max-merge=3 / limit-refs=3 / limit-modes / me=3 / subme=3 / merange=57 / temporal-mvp / weightp / no-weightb / no-analyze-src-pics / deblock=0:0 / sao / no-sao-non-deblock / rd=4 / no-early-skip / rskip / no-fast-intra / no-tskip-fast / no-cu-lossless / no-b-intra / rdpenalty=0 / psy-rd=2.00 / psy-rdoq=1.00 / no-rd-refine / analysis-mode=0 / no-lossless / cbqpoffs=0 / crqpoffs=0 / rc=crf / crf=18.0 / qcomp=0.60 / qpstep=4 / stats-write=0 / stats-read=0 / ipratio=1.40 / pbratio=1.30 / aq-mode=1 / aq-strength=1.00 / cutree / zone-count=0 / no-strict-cbr / qg-size=32 / no-rc-grain / qpmax=69 / qpmin=0 / sar=0 / overscan=0 / videoformat=5 / range=0 / colorprim=2 / transfer=2 / colormatrix=2 / chromaloc=0 / display-window=0 / max-cll=0,0 / min-luma=0 / max-luma=1023 / log2-max-poc-lsb=8 / vui-timing-info / vui-hrd-info / slices=1 / opt-qp-pps / opt-ref-list-length-pps / no-multi-pass-opt-rps / scenecut-bias=0.05
Default : Yes
Forced : No

Audio #1
ID : 2
Format : AC-3
Format/Info : Audio Coding 3
Codec ID : A_AC3
Duration : 1 h 39 min
Bit rate mode : Constant
Bit rate : 192 kb/s
Channel(s) : 2 channels
Channel positions : Front: L R
Sampling rate : 48.0 kHz
Frame rate : 31.250 FPS (1536 SPF)
Bit depth : 16 bits
Compression mode : Lossy
Stream size : 137 MiB (4%)
Title : 2.0 @ 192 kbps
Language : Ukrainian
Service kind : Complete Main
Default : Yes
Forced : Yes

Audio #2
ID : 3
Format : AC-3
Format/Info : Audio Coding 3
Codec ID : A_AC3
Duration : 1 h 39 min
Bit rate mode : Constant
Bit rate : 448 kb/s
Channel(s) : 6 channels
Channel positions : Front: L C R, Side: L R, LFE
Sampling rate : 48.0 kHz
Frame rate : 31.250 FPS (1536 SPF)
Bit depth : 16 bits
Compression mode : Lossy
Stream size : 320 MiB (9%)
Title : 5.1 @ 448 kbps
Language : English
Service kind : Complete Main
Default : No
Forced : No

Text #1
ID : 4
Format : UTF-8
Codec ID : S_TEXT/UTF8
Codec ID/Info : UTF-8 Plain Text
Duration : 6 min 54 s
Bit rate : 7 b/s
Count of elements : 9
Stream size : 412 Bytes (0%)
Title : Forced
Language : Ukrainian
Default : Yes
Forced : Yes

Text #2
ID : 5
Format : UTF-8
Codec ID : S_TEXT/UTF8
Codec ID/Info : UTF-8 Plain Text
Duration : 1 h 39 min
Bit rate : 113 b/s
Count of elements : 1278
Stream size : 83.0 KiB (0%)
Title : Full
Language : Ukrainian
Default : No
Forced : No

Text #3
ID : 6
Format : UTF-8
Codec ID : S_TEXT/UTF8
Codec ID/Info : UTF-8 Plain Text
Duration : 6 min 54 s
Bit rate : 4 b/s
Count of elements : 9
Stream size : 241 Bytes (0%)
Title : Forced
Language : English
Default : No
Forced : No

Text #4
ID : 7
Format : UTF-8
Codec ID : S_TEXT/UTF8
Codec ID/Info : UTF-8 Plain Text
Duration : 1 h 33 min
Bit rate : 71 b/s
Count of elements : 1337
Stream size : 48.9 KiB (0%)
Title : Full
Language : English
Default : No
Forced : No

Text #5
ID : 8
Format : UTF-8
Codec ID : S_TEXT/UTF8
Codec ID/Info : UTF-8 Plain Text
Duration : 1 h 31 min
Bit rate : 76 b/s
Count of elements : 1424
Stream size : 51.3 KiB (0%)
Title : SDH
Language : English
Default : No
Forced : No

Menu
00:00:00.000 : en:00:00:00.000
00:02:55.884 : en:00:02:55.884
00:06:00.151 : en:00:06:00.151
00:08:28.133 : en:00:08:28.133
00:11:32.609 : en:00:11:32.609
00:14:17.190 : en:00:14:17.190
00:17:39.600 : en:00:17:39.600
00:19:56.237 : en:00:19:56.237
00:23:08.804 : en:00:23:08.804
00:25:35.409 : en:00:25:35.409
00:29:30.310 : en:00:29:30.310
00:32:11.763 : en:00:32:11.763
00:34:16.262 : en:00:34:16.262
00:35:51.649 : en:00:35:51.649
00:38:58.044 : en:00:38:58.044
00:40:18.833 : en:00:40:18.833
00:41:43.793 : en:00:41:43.793
00:45:22.761 : en:00:45:22.761
00:48:22.649 : en:00:48:22.649
00:51:53.026 : en:00:51:53.026
00:55:18.273 : en:00:55:18.273
00:59:08.545 : en:00:59:08.545
01:04:17.020 : en:01:04:17.020
01:08:34.986 : en:01:08:34.986
01:12:20.461 : en:01:12:20.461
01:16:18.907 : en:01:16:18.907
01:17:41.490 : en:01:17:41.490
01:20:47.801 : en:01:20:47.801
01:24:02.370 : en:01:24:02.370
01:27:08.556 : en:01:27:08.556
01:30:55.908 : en:01:30:55.908
01:32:57.363 : en:01:32:57.363
Скріншоти



Джерело:
Особиста оцінка: 10 - без зайвих вагань рекомендую всім!


 Трекер:    Зареєстрований   

Завантажити / скачати фільм українською



відео для новачків



 Зареєстрований:   2018-07-04 10:13
 Розмір:   3.34 GB 
 Оцінка фільму:   9.2/10 (Голосів: 22)
   
Ваш часовий пояс: GMT + 2 Години

Нова тема   Відповісти