28 днів потому / 28 Days Later... (2002) 1080p Ukr/Eng | Sub Ukr/Eng

Нові коментарі

Нова тема   Відповісти
Автор Повідомлення
staf777 
Відео Гуртом - підтримка та поширення
Відео Гуртом - підтримка та поширення


З нами з: 16.11.16
Востаннє: 25.09.20
Повідомлень: 4034

2018-07-04 11:03  
28 днів потому / 28 Days Later... (2002) 1080p Ukr/Eng | Sub Ukr/Eng

28 днів потому / 28 Days Later... (2002) 1080p Ukr/Eng | Sub Ukr/Eng


Жанр: фантастика, трилер, жахи
Країна: Велика Британія



Кінокомпанія: DNA Films, British Film Council
Режисер: Денні Бойл
Актори: Кілліан Мерфі, Наомі Гарріс, Ноа Гантлі, Брендан Глісон, Меган Бернс, Крістофер Екклстон, Алекс Палмер

Сюжет:
Група «зелених» екстремістів проникає в центр дослідження приматів і випускає з секретної наукової лабораторії мавпу, заражену вірусом нестримної агресії. Смертельний вірус, що передається через кров за лічені секунди, приводить до миттєвого зараження і, стикаючись з будь-якою живою істотою, перетворює її на кровожерливого монстра.

Через 4 тижні вся Англія охоплена страшною епідемією: багато людей евакуювалися, інші шукають безпечні місця, в надії врятуватися. Ті, кому пощастило не заразитися, разом з групою військових ховаються в покинутому будинку. Разом їм належить розібратися в ситуації і спробувати її виправити...


Тривалість: 01:53:07
Якість: 1080p
Відео:
кодек:
розмір кадру: 1920x1040
бітрейт: 14,9 Mб/с

Аудіо # 1:
мова: українська
переклад: багатоголосий закадровий
кодек: 2.0
бітрейт: 192 кб/с

Аудіо # 2:
мова: англійська
переклад: оригінал
кодек: 5.1
бітрейт: 1509 кб/с

Джерело озвучення:


Субтитри:
мова: українська
тип: програмні (м'які)
формат: *.srt

Субтитри:
мова: англійська
тип: програмні (м'які)
формат: *.srt
Info
General
Unique ID : 205641182856468635614298765647377844013 (0x9AB50D1A8ABEE63DB66D90EE3FC3C72D)
Complete name : G:\Майбутні релізи\28 Days Later... (2002) 1080p [Ukr, Eng, Sub Ukr, Eng [Hurtom].
Format :
Format version : Version 4 / Version 2
File size : 13.1 GiB
Duration : 1 h 53 min
Overall bit rate : 16.6 Mb/s
Movie name : 28 Days Later... (2002) 1080p [Ukr, Eng, Sub Ukr, Eng [Hurtom]
Encoded date : UTC 2018-07-04 07:46:29
Writing application : v9.8.0 ('Kuglblids') 64bit
Writing library : libebml v1.3.4 + v1.4.5
Cover : Yes
Attachments : cover.jpg

Video
ID : 1
Format : AVC
Format/Info : Advanced Video Codec
Format profile : [email protected]
Format settings : CABAC / 4 Ref Frames
Format settings, CABAC : Yes
Format settings, ReFrames : 4 frames
Codec ID : V_MPEG4/ISO/AVC
Duration : 1 h 53 min
Bit rate : 14.9 Mb/s
Width : 1 920 pixels
Height : 1 040 pixels
Display aspect ratio : 1.85:1
Frame rate mode : Constant
Frame rate : 23.976 (24000/1001) FPS
Color space : YUV
Chroma subsampling : 4:2:0
Bit depth : 8 bits
Scan type : Progressive
Bits/(Pixel*Frame) : 0.311
Stream size : 11.8 GiB (90%)
Writing library : core 68 r1183M f21daff
Encoding settings : cabac=1 / ref=4 / deblock=1:-3:-3 / analyse=0x3:0x113 / me=umh / subme=9 / psy_rd=1.0:0.0 / mixed_ref=1 / me_range=32 / chroma_me=1 / trellis=2 / 8x8dct=1 / cqm=0 / deadzone=21,11 / chroma_qp_offset=-2 / threads=12 / nr=0 / decimate=0 / mbaff=0 / bframes=5 / b_pyramid=0 / b_adapt=2 / b_bias=0 / direct=3 / wpredb=1 / keyint=250 / keyint_min=25 / scenecut=40 / rc=2pass / bitrate=14900 / ratetol=1.0 / qcomp=0.60 / qpmin=10 / qpmax=51 / qpstep=4 / cplxblur=20.0 / qblur=0.5 / ip_ratio=1.40 / pb_ratio=1.30 / aq=1:0.80
Language : English
Default : Yes
Forced : No

Audio #1
ID : 2
Format : AC-3
Format/Info : Audio Coding 3
Codec ID : A_AC3
Duration : 1 h 53 min
Bit rate mode : Constant
Bit rate : 192 kb/s
Channel(s) : 2 channels
Channel positions : Front: L R
Sampling rate : 48.0 kHz
Frame rate : 31.250 FPS (1536 SPF)
Bit depth : 16 bits
Compression mode : Lossy
Stream size : 155 MiB (1%)
Title : [UA-MVO-1+1]
Language : Ukrainian
Service kind : Complete Main
Default : Yes
Forced : Yes

Audio #2
ID : 3
Format :
Format/Info : Digital Theater Systems
Codec ID : A_DTS
Duration : 1 h 53 min
Bit rate mode : Constant
Bit rate : 1 509 kb/s
Channel(s) : 6 channels
Channel positions : Front: L C R, Side: L R, LFE
Sampling rate : 48.0 kHz
Frame rate : 93.750 FPS (512 SPF)
Bit depth : 24 bits
Compression mode : Lossy
Stream size : 1.19 GiB (9%)
Title :
Language : English
Default : No
Forced : No

Text #1
ID : 4
Format : UTF-8
Codec ID : S_TEXT/UTF8
Codec ID/Info : UTF-8 Plain Text
Duration : 1 h 51 min
Bit rate : 53 b/s
Count of elements : 827
Stream size : 43.9 KiB (0%)
Language : Ukrainian
Default : No
Forced : No

Text #2
ID : 5
Format : UTF-8
Codec ID : S_TEXT/UTF8
Codec ID/Info : UTF-8 Plain Text
Duration : 1 h 51 min
Bit rate : 31 b/s
Count of elements : 860
Stream size : 25.9 KiB (0%)
Title : ENG
Language : English
Default : No
Forced : No
Скріншоти



Подяки:
Запис з ТБ: Sando7, robotron005
Синхронізація lenina4040
Субтитри з DVD: Soyer

Джерело: &
Особиста оцінка: 8 - мені сподобалося


Срібний реліз (на рейтинг впливає 50% завантаженого)
 Трекер:    Зареєстрований   

Завантажити / скачати фільм українською



відео для новачків



 Зареєстрований:   2018-07-04 11:03
 Розмір:   13.12 GB 
 Оцінка фільму:   9.1/10 (Голосів: 18)
   
uaxpasha 
VIP


З нами з: 05.08.12
Востаннє: 23.09.20
Повідомлень: 346

2018-07-05 17:50  
ІМХО фільм переоцінений
mutomba 
VIP


З нами з: 20.10.13
Востаннє: 24.09.20
Повідомлень: 361

2018-07-07 16:11  
Круте кіно!
nazariy-UA 
Новенький


З нами з: 12.05.11
Востаннє: 20.09.20
Повідомлень: 18

2019-05-25 19:27  
Підкажіть, будь ласка, чи присутні альтернативні закінчення фільму в даній роздачі?
+380954897458 
VIP


З нами з: 02.06.17
Востаннє: 18.09.20
Повідомлень: 942

2019-05-25 22:19  
nazariy-UA
Альтернативних фіналів тут не має бути, бо тут один файл на один фільм, і все. Щоб знайти альтернативні закінчення, треба шукати блюрей з дотатковими матеріалами. Або знайти їх десь окремо, на Ютубі, приміром.

nazariy-UA 
Новенький


З нами з: 12.05.11
Востаннє: 20.09.20
Повідомлень: 18

2019-05-25 22:47  
+380954897458, дякую за відповідь!
+380954897458 
VIP


З нами з: 02.06.17
Востаннє: 18.09.20
Повідомлень: 942

2019-05-26 15:19  
nazariy-UA
Нема за що! :-)

Ваш часовий пояс: GMT + 2 Години

Нова тема   Відповісти