Фіолет - Нірванабуде (2017) 1080p | Pop-Rock

Нові коментарі

Нова тема   Відповісти
Останній раз роздавалося miliko777 (2019-08-22)
Автор Повідомлення
sergiyko.5 
VIP


З нами з: 25.02.16
Востаннє: 22.08.19
Повідомлень: 2442

2018-07-04 09:54  
Фіолет - Нірванабуде (2017) 1080p | Pop-Rock


Фіолет - Нірванабуде (2017) 1080p | Pop-Rock

Стиль: Pop Rock
Країна, місто: Україна, Київ

Опис:
Столичний концерт гурту «Фіолет» став апогеєм українського туру під назвою #нірванабуде. Це був незвичайний тур, оскільки музиканти дали можливість своїм шанувальникам самостійно формувати трек-списки концертів за допомогою голосування. Це означає, що під час київського виступу на вас чекають улюблені пісні! Окрім того, гурт презентував нові композиції, котрі увійдуть до їх майбутнього альбому «Aurora».

Приготуйтесь відчути драйв та тонку лірику, мить незабутнього єднання та справжню музичну нірвану, котру приготував для вас гурт «Фіолет», а також спеціальний гість концерту – гурт Cloudless.

Тривалість: 02:13:46
Якість:

Відео: кодек: розмір кадру: 1920 х 1080 бітрейт: 4000 кб/с
Аудіо: мова: українська кодек: 2.0 бітрейт: 192 кб/с
Про файл:
General
Unique ID : 7519778462182767612312360290301570245 (0x5A841B3EA7367FA9E8336D143CCECC5)
Complete name : F:\Content\Videomusic\Фіолет-Нірванабуде.2017.1080p..
Format :
Format version : Version 4 / Version 2
File size : 3.92 GiB
Duration : 2 h 13 min
Overall bit rate : 4 193 kb/s
Encoded date : UTC 2018-07-04 06:28:42
Writing application : v24.0.0 ('Beyond The Pale') 64-bit
Writing library : libebml v1.3.6 + v1.4.9

Video
ID : 1
Format : AVC
Format/Info : Advanced Video Codec
Format profile : [email protected]
Format settings : CABAC / 3 Ref Frames
Format settings, CABAC : Yes
Format settings, ReFrames : 3 frames
Codec ID : V_MPEG4/ISO/AVC
Duration : 2 h 13 min
Bit rate : 3 998 kb/s
Width : 1 920 pixels
Height : 1 080 pixels
Display aspect ratio : 16:9
Frame rate mode : Constant
Frame rate : 25.000 FPS
Color space : YUV
Chroma subsampling : 4:2:0
Bit depth : 8 bits
Scan type : Progressive
Bits/(Pixel*Frame) : 0.077
Stream size : 3.74 GiB (95%)
Language : Ukrainian
Default : Yes
Forced : No

Audio
ID : 2
Format :
Format/Info : Advanced Audio Codec
Format profile : LC
Codec ID : A_AAC-2
Duration : 2 h 13 min
Bit rate : 192 kb/s
Channel(s) : 2 channels
Channel positions : Front: L R
Sampling rate : 48.0 kHz
Frame rate : 46.875 FPS (1024 SPF)
Compression mode : Lossy
Stream size : 184 MiB (5%)
Language : Ukrainian
Default : Yes
Forced : No
Скріншоти:


Джерело: МЕГОГО


Золотий реліз (завантажене не впливає на рейтинг)
 Трекер:    Зареєстрований   

Завантажити / скачати кліп українською



відео для новачків



 Зареєстрований:   2018-07-04 09:54
 Розмір:   3.92 GB 
 Оцінка кліпу:   7.3/10 (Голосів: 4)
   
sergiyko.5 
VIP


З нами з: 25.02.16
Востаннє: 22.08.19
Повідомлень: 2442

2018-07-04 09:55  

4ur 
Новенький


З нами з: 26.06.13
Востаннє: 08.08.19
Повідомлень: 1

2019-04-18 21:19  
Схоже, що роздача померла... Хтось може роздати?
sergiyko.5 
VIP


З нами з: 25.02.16
Востаннє: 22.08.19
Повідомлень: 2442

2019-04-18 21:52  
4ur написано:
Схоже, що роздача померла... Хтось може роздати?

Роздаю. Після завантаження не тікайте з роздачі.

Ваш часовий пояс: GMT + 2 Години

Нова тема   Відповісти