Тартак - АнТАРТАКтида (2017) 1080p | Pop-Rock

Нові коментарі

Нова тема   Відповісти
Останній раз роздавалося wwwvik (2019-09-21)
Автор Повідомлення
sergiyko.5 
VIP


З нами з: 25.02.16
Востаннє: 23.09.19
Повідомлень: 2589

2018-07-04 09:45  
Тартак - АнТАРТАКтида (2017) 1080p | Pop-Rock


Тартак - АнТАРТАКтида (2017) 1080p | Pop-Rock

Стиль: Pop Rock
Країна, місто: Україна, Київ

Опис:
Чому б на початку грудня не вирушити до «АнТАРТАКтиди»? Ні, це не континент на краю Землі, а нова шоу-програма українського гурту «Тартак», котру ви просто зобов’язані почути та побачити!
Вас чекають свіжі композиції, а також старі-добрі пісні, котрі завжди звучать в серцях (та навушниках) фанатів: «Стільникове кохання», «Ні я не ту кохав», «Божевільні танці» - готуйтесь підспівувати! До речі, концерти 2 грудня – це вже хороша традиція для гурту, адже саме ця дата вважається днем народження бенду. Тому атмосфера свята, веселощів та творчості гарантована.

Тривалість: 03:12:53
Якість:

Відео: кодек: розмір кадру: 1920 х 1080 бітрейт: 4000 кб/с
Аудіо: мова: українська кодек: 2.0 бітрейт: 192 кб/с
Про файл:
General
Unique ID : 109670477717886153974483026068289999584 (0x5281C40541C03DD1FB02BCE58BC5D2E0)
Complete name : F:\Content\Videomusic\Тартак-АнТАРТАКтида.2017.1080p..
Format :
Format version : Version 4 / Version 2
File size : 5.65 GiB
Duration : 3 h 12 min
Overall bit rate : 4 194 kb/s
Encoded date : UTC 2018-07-04 06:29:58
Writing application : v24.0.0 ('Beyond The Pale') 64-bit
Writing library : libebml v1.3.6 + v1.4.9

Video
ID : 1
Format : AVC
Format/Info : Advanced Video Codec
Format profile : [email protected]
Format settings : CABAC / 3 Ref Frames
Format settings, CABAC : Yes
Format settings, ReFrames : 3 frames
Codec ID : V_MPEG4/ISO/AVC
Duration : 3 h 12 min
Bit rate : 4 000 kb/s
Width : 1 920 pixels
Height : 1 080 pixels
Display aspect ratio : 16:9
Frame rate mode : Constant
Frame rate : 25.000 FPS
Color space : YUV
Chroma subsampling : 4:2:0
Bit depth : 8 bits
Scan type : Progressive
Bits/(Pixel*Frame) : 0.077
Stream size : 5.39 GiB (95%)
Writing library : core 142 r2389 956c8d8
Encoding settings : cabac=1 / ref=3 / deblock=1:0:0 / analyse=0x3:0x133 / me=umh / subme=7 / psy=1 / psy_rd=1.00:0.00 / mixed_ref=1 / me_range=32 / chroma_me=1 / trellis=2 / 8x8dct=1 / cqm=0 / deadzone=21,11 / fast_pskip=1 / chroma_qp_offset=-2 / threads=12 / lookahead_threads=2 / sliced_threads=0 / nr=0 / decimate=1 / interlaced=0 / bluray_compat=0 / constrained_intra=0 / bframes=0 / weightp=0 / keyint=75 / keyint_min=26 / scenecut=40 / intra_refresh=0 / rc_lookahead=50 / rc=2pass / mbtree=0 / bitrate=4000 / ratetol=1.0 / qcomp=0.20 / qpmin=10 / qpmax=51 / qpstep=4 / cplxblur=20.0 / qblur=0.5 / vbv_maxrate=5000 / vbv_bufsize=5000 / nal_hrd=none / filler=0 / ip_ratio=1.40 / aq=1:1.00
Language : Ukrainian
Default : Yes
Forced : No
Color range : Limited
Color primaries : BT.709
Transfer characteristics : BT.709
Matrix coefficients : BT.709

Audio
ID : 2
Format :
Format/Info : Advanced Audio Codec
Format profile : LC
Codec ID : A_AAC-2
Duration : 3 h 12 min
Bit rate : 192 kb/s
Channel(s) : 2 channels
Channel positions : Front: L R
Sampling rate : 48.0 kHz
Frame rate : 46.875 FPS (1024 SPF)
Compression mode : Lossy
Stream size : 265 MiB (5%)
Language : Ukrainian
Default : Yes
Forced : No
Скріншоти:


Джерело: МЕГОГО


Золотий реліз (завантажене не впливає на рейтинг)
 Трекер:    Зареєстрований   

Завантажити / скачати кліп українською



відео для новачків



 Зареєстрований:   2018-07-04 09:45
 Розмір:   5.65 GB 
 Оцінка кліпу:   8.9/10 (Голосів: 9)
   
sergiyko.5 
VIP


З нами з: 25.02.16
Востаннє: 23.09.19
Повідомлень: 2589

2018-07-04 09:54  

eXteSy- 
VIP


З нами з: 06.04.09
Востаннє: 23.09.19
Повідомлень: 1994

2018-07-14 17:59  
Класний і позитивний концерт, переглянув із задоволенням. Несподівано було побачити Катю Chilly.
10/10

Ваш часовий пояс: GMT + 2 Години

Нова тема   Відповісти