Острів собак / Isle of Dogs (2018)

Нові коментарі

Нова тема   Відповісти
Автор Повідомлення
Anonymous 







2018-07-04 07:45  
Острів собак / Isle of Dogs (2018)

Острів собак / Isle of Dogs (2018)


Жанр: анімація, фентезі, драма, комедія, пригодницький
Країна: США, Німеччина



Кінокомпанія: 20th Century Fox, Indian Paintbrush
Режисер: Вес Андерсон / Wes Anderson
Ролі озвучують: Браян Кренстон / Bryan Cranston, Кою Ранкін / Koyu Rankin, Едвард Нортон / Edward Norton, Білл Мюррей / Bill Murray, Джеф Ґолдблюм / Jeff Goldblum, Ґрета Ґервіг / Greta Gerwig, Френсіс МакДорманд / Frances McDormand, Скарлет Йоханссон / Scarlett Johansson, Гарві Кейтель / Harvey Keitel, Тільда Суінтон / Tilda Swinton та інші

Сюжет:
Події розгортаються у Японії у недалекому майбутньому. Острови перенаселені, тож людям дедалі складніше уживатися поряд. Уряд вирішує, що від хатніх улюбленців потрібно відмовитися, аби лишилось місце людям. Усіх собак вивозять на острів, до країв заповнений сміттям. На велетенському звалищі, без їжі та гідного догляду, живуть тисячі тварин. Дванадцятирічний хлопчик Атарі готовий на все, аби повернути собі найкращого друга – вірного пса. Хлопчина викрадає старезний літак та дістається острова. Тут, у компанії п'ятьох розумних та активних собак, він і шукатиме свого друга.
Офіційні українські трейлер та промо:






Рейтинг MPAA: PG-13 - дітям до 13 років перегляд не бажаний
Вікова категорія: 12+

Тривалість: 01:41:09
Якість:
Відео:
кодек:
розмір кадру: 720 х 304
бітрейт: 1610 кб/с

Аудіо:
мова: українська
переклад: професійний дубльований | студія Postmodern
кодек: 5.1
бітрейт: 448 кб/с
Інформація про дубляж:
Перекладач: Олег Пашин
Режисер дубляжу: Ганна Пащенко
Звукорежисер: Денис Подляський
Менеджер проекту: Ольга Негієвич
Ролі дублювали:
Шеф - Борис Георгієвський,
Рекс - Іван Розін,
Кінг - Володимир Терещук,
Бос - Сергій Солопай,
Дюк - Олег Лепенець,
Трейсі - Єлизавета Зіновенко,
Нельсон - Олена Узлюк,
Кориця - Наталя Романько-Кисельова,
Ґондо - Валерій Легін,
Юпітер - Олександр Ігнатуша,
Йоко-Оно - Інна Бєлікова,
Сивіла - Тамара Морозова,
Брухт - Дмитро Бузинський,
Хіроші - Руслан Драпалюк,
Спот - Андрій Твердак,
Диктор - Кирило Нікітенко,
Ерні - Віктор Григор'єв,
Перекладач - Михайло Войчук,
М'ята - Вікторія Кулініч,
Чоловічі епізоди та гуртівка - Олександр Солодкий, Дмитро Рассказов, В'ячеслав Дудко,
Атарі - Дмитро Зленко (українською), Койю Ранкін (японською),
Мер Кобаяші - Кунічі Номура (японською),
Дворецький - Акіра Такаяма,
Професор Ватанабе - Акіра Іто,
Головний хірург - Кен Ватанабе,
Аунті - Марі Натсукі

Фільм дубльовано на студії Postmodern, зміксовано на студії Deluxe Media.

Субтитри:
мова: українська (форсовані, лише на неозвучені написи та діалоги)
тип: програмні (м'які)
формат: *.srt
примітка: на відміну від форсованих субтитрів з блурея (6 реплік), містять також переклад неозвучених написів та діалогів (74 репліки)
Info
Код:
General
Complete name               : Isle of Dogs (2018) [Ukr] [Hurtom].avi
Format                      : AVI
Format/Info                 : Audio Video Interleave
File size                   : 1.46 GiB
Duration                    : 1 h 41 min
Overall bit rate            : 2 067 kb/s
Movie name                  : Острів собак / Isle of Dogs (2018) [Ukr] [Hurtom]
Genre                       : анімація, драма, комедія, пригодницький
Recorded date               : 01.09.2018
Writing application         : VirtualDubModUkr 1.5.10.2 (build 2542/release)
Writing library             : VirtualDubMod build 2542/release
Comment                     : https://toloka.to/t93076

Video
ID                          : 0
Format                      : MPEG-4 Visual
Format profile              : Advanced [email protected]
Format settings             : BVOP1 / Custom Matrix
Format settings, BVOP       : 1
Format settings, QPel       : No
Format settings, GMC        : No warppoints
Format settings, Matrix     : Custom
Codec ID                    :
Codec ID/Hint               :
Duration                    : 1 h 41 min
Bit rate                    : 1 610 kb/s
Width                       : 720 pixels
Height                      : 304 pixels
Display aspect ratio        : 2.35:1
Frame rate                  : 23.976 (24000/1001) FPS
Color space                 : YUV
Chroma subsampling          : 4:2:0
Bit depth                   : 8 bits
Scan type                   : Progressive
Compression mode            : Lossy
Bits/(Pixel*Frame)          : 0.307
Stream size                 : 1.14 GiB (78%)
Writing library             : 73

Audio
ID                          : 1
Format                      : AC-3
Format/Info                 : Audio Coding 3
Commercial name             : Dolby Digital
Codec ID                    : 2000
Duration                    : 1 h 41 min
Bit rate mode               : Constant
Bit rate                    : 448 kb/s
Channel(s)                  : 6 channels
Channel layout              : L R C LFE Ls Rs
Sampling rate               : 48.0 kHz
Frame rate                  : 31.250 FPS (1536 SPF)
Bit depth                   : 16 bits
Compression mode            : Lossy
Stream size                 : 324 MiB (22%)
Alignment                   : Split accross interleaves
Interleave, duration        : 42  ms (1.00 video frame)
Interleave, preload duratio : 500  ms
Title                       : UKR DUB [Postmodern, Blu-Ray EUR]
Service kind                : Complete Main




Джерело: &
Українські форсовані субтитри - igor911.
Особиста оцінка: 8 - рекомендую до перегляду

11.07.2018 реліз оновлено до , додано українські форсовані субтитри на неозвучені написи
01.09.2018 реліз оновлено: українську стереодоріжку замінено на 5.1 з блурея, покращено українські форсовані субтитри на неозвучені написи та діалоги


 Трекер:    Зареєстрований   

Завантажити / скачати мультфільм українською



відео для новачків



 Зареєстрований:   2018-09-01 17:18
 Розмір:   1.46 GB 
 Оцінка мультфільму:   8.7/10 (Голосів: 51)
   
Інші релізи
Zastavniy.Andriy 
Свій


З нами з: 06.11.12
Востаннє: 23.10.20
Повідомлень: 62

2018-07-10 21:27  
Не рекомендую до перегляду цю нісенітницю, дітям такого взагалі не можна показувати.
Anonymous 







2018-07-11 13:52  
Реліз оновлено до , додано українські форсовані субтитри на неозвучені написи
Vicarious 
Частий відвідувач


З нами з: 09.01.18
Востаннє: 23.08.19
Повідомлень: 33

2018-07-12 12:19  
Zastavniy.Andriy
упоротий шолі? прикольний мультфільм від класного режисера!

Zastavniy.Andriy 
Свій


З нами з: 06.11.12
Востаннє: 23.10.20
Повідомлень: 62

2018-07-12 17:18  
Vicarious
шановний, я вас не ображав. Я кажу про адекватну оцінку, а модераторам слід таким, як ви зауваження робити.

leicheman 
Відео Гуртом - фільмокрай
Відео Гуртом - фільмокрай


З нами з: 03.07.14
Востаннє: 25.10.20
Повідомлень: 5541

2018-07-13 12:45  
Zastavniy.Andriy написано:
дітям такого взагалі не можна показувати

PG-13
ну дітям так, а от рейтинг від 13 то це вже підлітки.

jaguar_arx 
Свій


З нами з: 27.08.12
Востаннє: 17.10.20
Повідомлень: 97

2018-07-26 18:19  
Zastavniy.Andriy
то наче як і не дитячий мультик робився. Логічно що не дитячі мультики дітям не варто показувати Happy

qarty1 
VIP


З нами з: 01.11.09
Востаннє: 25.10.20
Повідомлень: 390

2018-08-29 20:28  
дуже крутий динамічний мульт вийшов. 8\10
antik_2008 
Релізер і модератор відео


З нами з: 20.10.08
Востаннє: 25.10.20
Повідомлень: 4204

2018-08-31 20:00  
Вже є Ukrainian / Dolby Digital Audio / 5.1 / 48 kHz / 448 kbps
Anonymous 







2018-09-01 17:20  
Реліз оновлено: українську стереодоріжку замінено на 5.1 з блурея, покращено українські форсовані субтитри на неозвучені написи та діалоги
Ваш часовий пояс: GMT + 2 Години

Нова тема   Відповісти