Найпрудкіший Індіан / The World's Fastest Indian (2005) Remux 1080p Ukr/Eng | Sub Eng

Нові коментарі

Нова тема   Відповісти
Автор Повідомлення
boroznaya 
Попереджень: 1
Попереджень: 1 


З нами з: 02.11.12
Востаннє: 21.10.18
Повідомлень: 2967

2018-07-02 20:23  
Найпрудкіший «Індіан» / The World's Fastest Indian (2005) Remux 1080p Ukr/Eng | Sub Eng

Найпрудкіший Індіан / The World's Fastest Indian (2005) Remux 1080p Ukr/Eng | Sub Eng

«Все своє життя я мріяв зробити що-небудь велике»

Жанр: драма, біографія, комедія, спорт, пригодницький
Країна: США, Японія, Швейцарія, Нова Зеландія



Кінокомпанія: 3 Dogs and a Pony | New Zealand Film Commission | New Zealand Film Production Fund | OLC/Rights Entertainment (Japan) Inc. | WFI Productions Ltd.
Режисер: Роджер Дональдсон
Актори: Ентоні Хопкінс, Айєйн Рі, Тесса Мітчел, Аарон Мерфі, Тім Шедболт, Енні Уіттл, Грег Джонсон, Ентоні Старр, Кейт Салліван, Крейг Холл

Сюжет:

Фільм розповідає про історію життя знаменитого новозеландця Берта Монро, який витратив десятиліття життя на переоснащення свого улюбленого мотоцикла марки «Індіан» 1920-го року випуску з максимальною швидкістю в 58 миль / год в гоночний болід для встановлення рекорду швидкості. І офіційний рекорд (200 миль / годину) зрештою був встановлений! Це сталося в 1967 році ...


Тривалість: 02:07:01
Якість: Remux 1080p
Відео:
кодек:
розмір кадру: 1920x1080
бітрейт: 29.9 Мб/с

Аудіо # 1: ,
мова: українська
переклад: багатоголосий закадровий
кодек: 5.1
бітрейт: 384 кб/с

Аудіо # 2:
мова: англійська
переклад: оригінал
кодек: HD MA 5.1
бітрейт: 2 116 кб/с

Субтитри:
мова: англійська
тип: програмні (м'які)
формат: *.pgs
Info:
Код:
[b]General[/b]
Unique ID                   : 229329853032384741179192734027061729778 (0xAC8752B75137D2492E93EAAEC33119F2)
Complete name               : D:\Фільми\Готові релізи\The World's Fastest Indian (2005) [Ukr, Eng, sub. Eng] Remux 1080p [Hurtom] by Zhuk_Mikola.
Format                      :
Format version              : Version 4 / Version 2
File size                   : 28.9 GiB
Duration                    : 2 h 7 min
Overall bit rate mode       : Variable
Overall bit rate            : 32.4 Mb/s
Encoded date                : UTC 2018-08-03 17:28:13
Writing application         : v20.0.0 ('I Am The Sun') 64-bit
Writing library             : libebml v1.3.5 + v1.4.8

[b]Video[/b]
ID                          : 1
Format                      : AVC
Format/Info                 : Advanced Video Codec
Format profile              : [email protected]
Format settings             : CABAC / 4 Ref Frames
Format settings, CABAC      : Yes
Format settings, ReFrames   : 4 frames
Codec ID                    : V_MPEG4/ISO/AVC
Duration                    : 2 h 7 min
Bit rate mode               : Variable
Bit rate                    : 29.9 Mb/s
Maximum bit rate            : 40.0 Mb/s
Width                       : 1 920 pixels
Height                      : 1 080 pixels
Display aspect ratio        : 16:9
Frame rate mode             : Constant
Frame rate                  : 23.976 (24000/1001) FPS
Color space                 : YUV
Chroma subsampling          : 4:2:0
Bit depth                   : 8 bits
Scan type                   : Progressive
Bits/(Pixel*Frame)          : 0.602
Stream size                 : 26.6 GiB (92%)
Language                    : English
Default                     : Yes
Forced                      : No
Color range                 : Limited
Color primaries             : BT.709
Transfer characteristics    : BT.709
Matrix coefficients         : BT.709

[b]Audio #1[/b]
ID                          : 2
Format                      : AC-3
Format/Info                 : Audio Coding 3
Codec ID                    : A_AC3
Duration                    : 2 h 7 min
Bit rate mode               : Constant
Bit rate                    : 384 kb/s
Channel(s)                  : 6 channels
Channel positions           : Front: L C R, Side: L R, LFE
Sampling rate               : 48.0 kHz
Frame rate                  : 31.250 FPS (1536 SPF)
Bit depth                   : 16 bits
Compression mode            : Lossy
Stream size                 : 350 MiB (1%)
Title                       : Багатоголосий закадровий, К-1, ICTV
Language                    : Ukrainian
Service kind                : Complete Main
Default                     : Yes
Forced                      : No

[b]Audio #2[/b]
ID                          : 3
Format                      :
Format/Info                 : Digital Theater Systems
Format profile              : MA / Core
Codec ID                    : A_DTS
Duration                    : 2 h 7 min
Bit rate mode               : Variable / Constant
Bit rate                    : 2 116 kb/s / 1 509 kb/s
Channel(s)                  : 6 channels
Channel positions           : Front: L C R, Side: L R, LFE
Sampling rate               : 48.0 kHz
Frame rate                  : 93.750 FPS (512 SPF)
Bit depth                   : 16 bits
Compression mode            : Lossless / Lossy
Stream size                 : 1.88 GiB (7%)
Language                    : English
Default                     : No
Forced                      : No

[b]Text[/b]
ID                          : 4
Format                      : PGS
Muxing mode                 : zlib
Codec ID                    : S_HDMV/PGS
Codec ID/Info               : Picture based subtitle format used on BDs/HD-DVDs
Duration                    : 2 h 0 min
Bit rate                    : 37.4 kb/s
Count of elements           : 2698
Stream size                 : 32.1 MiB (0%)
Language                    : English
Default                     : Yes
Forced                      : No
Скріншоти





Подяки:
- за запис Аудіо # 1 пану Romario_O, синхронізація - Гірський Кришталь;
- за запис Аудіо # 2 пану dvorsky, синхзронізація - DеLight;
- за українізований постер пану hellforces.

Джерело: &
Особиста оцінка: 10 - без зайвих вагань рекомендую всім!
Над релізом працював -
Не забуваємо подякувати релізеру!


Золотий реліз (завантажене не впливає на рейтинг)
 Трекер:    Зареєстрований   

Завантажити / скачати фільм українською



відео для новачків



 Зареєстрований:   2018-08-05 10:49
 Розмір:   28.89 GB 
 Оцінка фільму:   9/10 (Голосів: 4)
   
bot 
робот


З нами з: 30.09.07
Востаннє: 26.05.05
Повідомлень: 19984

2018-07-02 20:25  
Тему перенесено з Фільми в HD до форуму Анонси релізів


boroznaya

Lil`Antoni 
VIP


З нами з: 25.02.12
Востаннє: 21.10.18
Повідомлень: 617

2018-07-03 11:39  
Скажіть будь ласка.
Яка краща доріжка , та що буде від ICTV тут чи що т від К1 https://toloka.to/t57116
Щоб знати чи чекати в 720 чи почекати цей реліз )

Nymizmat 
Новенький


З нами з: 09.11.14
Востаннє: 16.10.18
Повідомлень: 19

2018-07-03 12:01  
Шикарний фільм! Вже давно у власній фільмотеці.

Цитата:
«Індіан» 1920 випуску


Думаю, в описі треба додати "року", а то якось не так сприймається.

urij546724 
Відео Гуртом - фільмокрай
Відео Гуртом - фільмокрай


З нами з: 16.03.10
Востаннє: 21.10.18
Повідомлень: 5494

2018-07-03 21:00  
boroznaya, якби знав що є ще одна озвучка, записав би з місцевого ТВ4, там часто транслюють у хорошому стерео. Як буде повтор то запишу.
boroznaya 
Попереджень: 1
Попереджень: 1 


З нами з: 02.11.12
Востаннє: 21.10.18
Повідомлень: 2967

2018-07-03 21:52  
Lil`Antoni, мені більш до вподоби озвучення від К-1.
Nymizmat, при викладанні релізу все буде виправлено!
urij546724, було б чудово. Добре, коли є кілька озвучень!

IronBee 
Поважний учасник


З нами з: 08.02.10
Востаннє: 21.10.18
Повідомлень: 208

2018-07-04 18:47  
Гарний фільм)
boroznaya 
Попереджень: 1
Попереджень: 1 


З нами з: 02.11.12
Востаннє: 21.10.18
Повідомлень: 2967

2018-07-19 20:56  
Фільми, згідно з анонсами, які були викладені мною, байдуже, скільки днів тому - повинні бути мною і вкладені! Це ж не новинки, які чекають сотні людей. Я затратив на них свій час, якого у мене обмаль. Навіщо викладати релізи, анонс до яких вже оголошено? Невже на сайті є так багато фільмів, що у Вас, шановні релізери, бракує фантазії, щоб викласти щось інше, помимо уже заявленого. Я ж не посягаю на чуже. Тому, раджу й Вам цього не робити. З повагою!
bot 
робот


З нами з: 30.09.07
Востаннє: 26.05.05
Повідомлень: 19984

2018-07-29 12:15  
Тему перенесено з Анонси релізів до форуму Фільми в HD


boroznaya

igor911 
Відео Гуртом
Відео Гуртом


З нами з: 18.01.08
Востаннє: 22.10.18
Повідомлень: 11263

2018-07-29 12:28  
boroznaya написано:
кодек: MPEG 2
бітрейт: 16.7 Мб/с

є надагато якісніший відеоряд з німецького блурея (AVC 30 Мб/с)
Disc Info

BD-50 (36,9GB)
Total Bitrate: 36,48 Mbps

Video Resolution/Codec
Video codec: MPEG-4 AVC Video, High Profile 4.1
AVG Bitrate: 29957 kbps
Video resolution: 1080p 23,976 fps
Aspect Ratio(s) 16:9, 1.78:1
Length: 2:07:26

bot 
робот


З нами з: 30.09.07
Востаннє: 26.05.05
Повідомлень: 19984

2018-07-29 12:54  
Тему перенесено з Фільми в HD до форуму Анонси релізів


boroznaya

boroznaya 
Попереджень: 1
Попереджень: 1 


З нами з: 02.11.12
Востаннє: 21.10.18
Повідомлень: 2967

2018-07-29 12:56  
igor911, буде оновлено. Реліз протягом наступного тижня!
-_-В_E_N_D_Е_R-_- 
Забанено
Забанено


З нами з: 11.07.18
Востаннє: 23.08.18
Повідомлень: 547

2018-08-01 22:44  
boroznaya написано:

- за запис Аудіо # 1 пану Romario_O, синхронізація - Гірський Кришталь;
- за запис Аудіо # 2 пану dvorsky, синхзронізація - DеLight;

Вони ж однакові

boroznaya написано:

Аудіо # 1: ,
мова: українська
переклад: багатоголосий закадровий
кодек: 5.1
бітрейт: 384 кб/с

Краще не брати цей звук 5.1

https://toloka.to/t46216

bot 
робот


З нами з: 30.09.07
Востаннє: 26.05.05
Повідомлень: 19984

2018-08-05 10:49  
Тему перенесено з Анонси релізів до форуму Фільми в HD


boroznaya

igor911 
Відео Гуртом
Відео Гуртом


З нами з: 18.01.08
Востаннє: 22.10.18
Повідомлень: 11263

2018-08-05 11:08  
boroznaya написано:
- за запис Аудіо # 2 пану dvorsky, синхзронізація - DеLight;

?
чому було обрано старіший псевдо-5.1 звук з гіршого запису?

boroznaya 
Попереджень: 1
Попереджень: 1 


З нами з: 02.11.12
Востаннє: 21.10.18
Повідомлень: 2967

2018-08-05 11:21  
igor911 написано:
чому було обрано старіший псевдо-5.1 звук з гіршого запису?

Мені зручніше переглядати в 5.1! Для моєї аудіосистеми такий звук кращий!

mr. blef 
Частий відвідувач


З нами з: 26.02.18
Востаннє: 20.10.18
Повідомлень: 39

2018-08-05 14:47  
Нереально крутий фільмець. Вже навіть не пам'ятаю, скільки разів його переглядав, але все одно неймовірно цікаво робити це знову і знову. Тепер хочу глянути в чудовій якості. Спасибі, релізеру!
-_-В_E_N_D_Е_R-_- 
Забанено
Забанено


З нами з: 11.07.18
Востаннє: 23.08.18
Повідомлень: 547

2018-08-05 16:45  
boroznaya написано:
Мені зручніше переглядати в 5.1! Для моєї аудіосистеми такий звук кращий!

Тут Ви викладаєте фільми не зовсім для себе

boroznaya 
Попереджень: 1
Попереджень: 1 


З нами з: 02.11.12
Востаннє: 21.10.18
Повідомлень: 2967

2018-08-05 16:49  
-_-В_E_N_D_Е_R-_-, мене якість звуку повністю задовільнила!
Ваш часовий пояс: GMT + 2 Години

Нова тема   Відповісти