Лиса нянька / The Pacifier (2005) 1080p Ukr/Eng | Sub Ukr/Eng

Нові коментарі

Нова тема   Відповісти
Автор Повідомлення
Argentum 
Поважний учасник


З нами з: 25.09.11
Востаннє: 19.06.19
Повідомлень: 201

2018-07-02 15:00  
Лиса нянька / The Pacifier (2005) 1080p Ukr/Eng | Sub Ukr/Eng

Лиса нянька / The Pacifier (2005) 1080p Ukr/Eng | Sub Ukr/Eng


Жанр: бойовик, сімейний, комедія
Країна: США, Канада



Кінокомпанія: Walt Disney Pictures, Spyglass Entertainment, Birnbaum/Barber
Режисер: Адам Шенкман
Актори: Він Дізель, Лорен Грем, Фейт Форд, Бріттані Сноу, Макс Тіріот, Кріс Поттер, Керол Кейн, Бред Гаррет та інші.

Сюжет:
Головний герой пройшов сувору школу армії і гарячих точок. Він не боїться ніякого ворога, але нове завдання стане справжнім випробуванням навіть для нього. Адже, крім того, щоб охороняти сім'ю наукового генія від ворогів, солдату доведеться няньчити п'ятьох дітей, які й без будь-якої зовнішньої загрози являють собою ходячу катастрофу.


Тривалість: 01:35:20
Якість:
Відео:
кодек:
розмір кадру: 1920 х 800
бітрейт: 14,2 Мб/с

Аудіо # 1:
мова: українська
переклад: двоголосий закадровий
кодек: 5.1
бітрейт: 448 кб/с

Аудіо # 2:
мова: англійська
переклад: оригінал
кодек: 5.1
бітрейт: 640 кб/с

Субтитри:
мова: українська
тип: програмні (м'які)
формат: *.srt

Субтитри:
мова: англійська
тип: програмні (м'які)
формат: *.srt
Info
General
Unique ID : 174538469127839780099997136738728591007 (0x834EE2EC08823823F16333FDBA94BE9F)
Complete name : The Pacifier (2005) [Ukr,Eng] 1080p [Hurtom].
Format :
Format version : Version 4 / Version 2
File size : 10.2 GiB
Duration : 1 h 35 min
Overall bit rate : 15.3 Mb/s
Movie name : The Pacifier (2005) [Ukr,Eng] 1080p
Encoded date : UTC 2018-07-02 10:19:07
Writing application : v24.0.0 ('Beyond The Pale') 64-bit
Writing library : libebml v1.3.6 + v1.4.9
Attachments : the.pacifier.2005_2_550.jpg

Video
ID : 1
Format : AVC
Format/Info : Advanced Video Codec
Format profile : [email protected]
Format settings : CABAC / 5 Ref Frames
Format settings, CABAC : Yes
Format settings, ReFrames : 5 frames
Codec ID : V_MPEG4/ISO/AVC
Duration : 1 h 35 min
Bit rate : 14.2 Mb/s
Width : 1 920 pixels
Height : 800 pixels
Display aspect ratio : 2.40:1
Frame rate mode : Constant
Frame rate : 23.976 (24000/1001) FPS
Color space : YUV
Chroma subsampling : 4:2:0
Bit depth : 8 bits
Scan type : Progressive
Bits/(Pixel*Frame) : 0.386
Stream size : 9.46 GiB (93%)
Title : AVC 1920*800 @ 14.2 Mbps
Writing library : core 155 r2901 7d0ff22
Encoding settings : cabac=1 / ref=5 / deblock=1:-3:-3 / analyse=0x3:0x133 / me=umh / subme=11 / psy=1 / psy_rd=1,00:0,15 / mixed_ref=1 / me_range=48 / chroma_me=1 / trellis=2 / 8x8dct=1 / cqm=0 / deadzone=21,11 / fast_pskip=0 / chroma_qp_offset=-3 / threads=12 / lookahead_threads=2 / sliced_threads=0 / nr=0 / decimate=1 / interlaced=0 / bluray_compat=0 / constrained_intra=0 / bframes=8 / b_pyramid=2 / b_adapt=2 / b_bias=0 / direct=3 / weightb=1 / open_gop=0 / weightp=2 / keyint=240 / keyint_min=24 / scenecut=40 / intra_refresh=0 / rc_lookahead=60 / rc=crf / mbtree=0 / crf=18,0 / qcomp=0,60 / qpmin=0 / qpmax=69 / qpstep=4 / vbv_maxrate=62500 / vbv_bufsize=78125 / crf_max=0,0 / nal_hrd=none / filler=0 / ip_ratio=1,40 / pb_ratio=1,30 / aq=1:1,00
Language : Multiple languages
Default : Yes
Forced : Yes
Color range : Limited
Color primaries : BT.709
Transfer characteristics : BT.709
Matrix coefficients : BT.709

Audio #1
ID : 2
Format : AC-3
Format/Info : Audio Coding 3
Codec ID : A_AC3
Duration : 1 h 35 min
Bit rate mode : Constant
Bit rate : 448 kb/s
Channel(s) : 6 channels
Channel positions : Front: L C R, Side: L R, LFE
Sampling rate : 48.0 kHz
Frame rate : 31.250 FPS (1536 SPF)
Bit depth : 16 bits
Compression mode : Lossy
Stream size : 306 MiB (3%)
Title : 5.1 @ 448 Kbps # 1+1
Language : Ukrainian
Service kind : Complete Main
Default : Yes
Forced : Yes

Audio #2
ID : 3
Format : AC-3
Format/Info : Audio Coding 3
Codec ID : A_AC3
Duration : 1 h 35 min
Bit rate mode : Constant
Bit rate : 640 kb/s
Channel(s) : 6 channels
Channel positions : Front: L C R, Side: L R, LFE
Sampling rate : 48.0 kHz
Frame rate : 31.250 FPS (1536 SPF)
Bit depth : 16 bits
Compression mode : Lossy
Stream size : 436 MiB (4%)
Title : 5.1 @ 640 Kbps
Language : English
Service kind : Complete Main
Default : No
Forced : No

Text #1
ID : 4
Format : UTF-8
Codec ID : S_TEXT/UTF8
Codec ID/Info : UTF-8 Plain Text
Duration : 1 h 28 min
Bit rate : 78 b/s
Count of elements : 1057
Stream size : 50.9 KiB (0%)
Language : Ukrainian
Default : No
Forced : No

Text #2
ID : 5
Format : UTF-8
Codec ID : S_TEXT/UTF8
Codec ID/Info : UTF-8 Plain Text
Duration : 1 h 28 min
Bit rate : 53 b/s
Count of elements : 1033
Stream size : 34.5 KiB (0%)
Language : English
Default : No
Forced : No

Menu
00:00:00.000 : en:00:00:00.000
00:06:02.987 : en:00:06:02.987
00:15:39.480 : en:00:15:39.480
00:20:49.289 : en:00:20:49.289
00:25:05.170 : en:00:25:05.170
00:33:03.898 : en:00:33:03.898
00:36:11.961 : en:00:36:11.961
00:41:02.877 : en:00:41:02.877
00:46:39.505 : en:00:46:39.505
00:53:54.481 : en:00:53:54.481
00:57:30.488 : en:00:57:30.488
01:01:50.998 : en:01:01:50.998
01:09:55.608 : en:01:09:55.608
01:19:56.458 : en:01:19:56.458
01:25:33.837 : en:01:25:33.837
01:29:54.013 : en:01:29:54.013
Скріншоти







Джерело: &

За доріжку 1 подяка пану _oles за зведення та панам drakon87, urij546724 - за запис з ТБ
За українські субтитри подяка пану _oles
За українізований постер подяка панам Bovich та igor911

Особиста оцінка: 8 - мені сподобалося


 Трекер:    Зареєстрований   

Завантажити / скачати фільм українською



відео для новачків



 Зареєстрований:   2018-07-02 15:00
 Розмір:   10.19 GB 
 Оцінка фільму:   9.7/10 (Голосів: 6)
   
Інші релізи
   Лиса нянька / The Pacifier (2005) AVC Ukr/Eng | Sub Ukr/Eng Arsenfpu  5 / 0   2.31 GB   2019-05-05 23:13 
   Лиса нянька / The Pacifier (2005) 720p Ukr/Eng | Sub Ukr/Eng igor911  3 / 0   5.24 GB   2016-03-18 16:50 
   Лиса нянька / The Pacifier (2005) Ukr/Eng | Sub Ukr/Eng igor911  14 / 0   1.75 GB   2016-03-18 14:14 
Ваш часовий пояс: GMT + 2 Години

Нова тема   Відповісти