Вулиця 110 / Across 110th Street (1972) 1080p Ukr/Eng

Нові коментарі

Нова тема   Відповісти
Автор Повідомлення
Anonymous 







2018-07-02 06:58  
Вулиця 110 / Across 110th Street (1972) 1080p Ukr/Eng

Вулиця 110 / Across 110th Street (1972) 1080p Ukr/Eng


Жанр: бойовик, трилер, драма, кримінальний
Країна: США



Кінокомпанія: Film Guarantors
Режисер: Баррі Шір
Актори: Ентоні Куїнн, Френк Аду, Френк Арно, Йозеф Атлс, Пол Бенджамін

Сюжет:
Малі чорношкірі злочинці наважилися на нахабний злочин: вони вкрали у італійського гангстера 300 тисяч доларів і тепер перебувають у бігах. За справу беруться двоє поліцейських — корумпований коп і його юний чорношкірий напарник. Залишається тільки одне питання, хто першим добереться до злодюжок: служителі закону або італійські мафіозі...


Тривалість: 01:41:19
Якість:
Відео:
кодек:
розмір кадру: 1920х1040
бітрейт: 9 297 кб/с

Аудіо # 1:
мова: українська
переклад: багатоголосий закадровий | AMC
кодек: 2.0
бітрейт: 192 кб/с

Аудіо # 2:
мова: англійська
переклад: оригінал
кодек: 2.0
бітрейт: 1509 кб/с
Info
General
Unique ID : 208124677867258859542663668599029871979 (0x9C935ADC7FC8BEB0AA921276B859B56B)
Format :
Format version : Version 4 / Version 2
File size : 7.78 GiB
Duration : 1 h 41 min
Overall bit rate : 11.0 Mb/s
Encoded date : UTC 2018-07-02 03:43:40
Writing application : v6.1.0 ('Old Devil') built on Mar 4 2013 09:10:42
Writing library : libebml v1.3.0 + v1.4.0

Video
ID : 1
Format : AVC
Format/Info : Advanced Video Codec
Format profile : [email protected]
Format settings, CABAC : Yes
Format settings, ReFrames : 4 frames
Codec ID : V_MPEG4/ISO/AVC
Duration : 1 h 41 min
Bit rate : 9 297 kb/s
Width : 1 920 pixels
Height : 1 040 pixels
Display aspect ratio : 1.85:1
Frame rate mode : Constant
Frame rate : 23.976 (24000/1001) FPS
Color space : YUV
Chroma subsampling : 4:2:0
Bit depth : 8 bits
Scan type : Progressive
Bits/(Pixel*Frame) : 0.194
Stream size : 6.43 GiB (83%)
Writing library : core 142 r2453 ea0ca51
Encoding settings : cabac=1 / ref=4 / deblock=1:0:0 / analyse=0x3:0x113 / me=umh / subme=8 / psy=1 / psy_rd=1.00:0.00 / mixed_ref=1 / me_range=16 / chroma_me=1 / trellis=1 / 8x8dct=1 / cqm=0 / deadzone=21,11 / fast_pskip=0 / chroma_qp_offset=-2 / threads=18 / lookahead_threads=3 / sliced_threads=0 / nr=0 / decimate=1 / interlaced=0 / bluray_compat=0 / constrained_intra=0 / bframes=3 / b_pyramid=2 / b_adapt=1 / b_bias=0 / direct=1 / weightb=1 / open_gop=0 / weightp=2 / keyint=250 / keyint_min=23 / scenecut=40 / intra_refresh=0 / rc_lookahead=40 / rc=2pass / mbtree=1 / bitrate=9297 / ratetol=1.0 / qcomp=0.60 / qpmin=0 / qpmax=69 / qpstep=4 / cplxblur=20.0 / qblur=0.5 / ip_ratio=1.40 / aq=1:1.00
Language : English
Default : Yes
Forced : No

Audio #1
ID : 2
Format : AC-3
Format/Info : Audio Coding 3
Format settings, Endianness : Big
Codec ID : A_AC3
Duration : 1 h 41 min
Bit rate mode : Constant
Bit rate : 192 kb/s
Channel(s) : 2 channels
Channel positions : Front: L R
Sampling rate : 48.0 kHz
Frame rate : 31.250 FPS (1536 spf)
Bit depth : 16 bits
Compression mode : Lossy
Stream size : 139 MiB (2%)
Title : UKR (AMC)
Language : Ukrainian
Service kind : Complete Main
Default : Yes
Forced : Yes

Audio #2
ID : 3
Format :
Format/Info : Digital Theater Systems
Mode : 16
Format settings, Endianness : Big
Codec ID : A_DTS
Duration : 1 h 41 min
Bit rate mode : Constant
Bit rate : 1 509 kb/s
Channel(s) : 2 channels
Channel positions : Front: L R
Sampling rate : 48.0 kHz
Frame rate : 93.750 FPS (512 spf)
Bit depth : 24 bits
Compression mode : Lossy
Stream size : 1.07 GiB (14%)
Title : 2.0
Language : English
Default : No
Forced : No

Menu
00:00:00.000 : en:00:00:00.000
00:12:50.228 : en:00:12:50.228
00:19:45.476 : en:00:19:45.476
00:29:26.473 : en:00:29:26.473
00:50:05.628 : en:00:50:05.628
01:02:45.720 : en:01:02:45.720
01:14:04.899 : en:01:14:04.899
01:24:08.168 : en:01:24:08.168
Скріншоти






За запис з ТБ дякую пану Sando7
За синхронізацію доріжки дякую пану Arsenfpu
Особиста подяка пану denixx за надану матеріальну допомогу на підтримку цього і майбутніх релізів.
Джерело:


Срібний реліз (на рейтинг впливає 50% завантаженого)
 Трекер:    Зареєстрований   

Завантажити / скачати фільм українською



відео для новачків



 Зареєстрований:   2018-07-02 06:58
 Розмір:   7.78 GB 
 Оцінка фільму:   10/10 (Голосів: 4)
   
Інші релізи
   Вулиця 110 / Across 110th Street (1972) Ukr/Eng Arsenfpu  2 / 0   1.94 GB   2017-09-28 21:17 
   Вулиця 110 / Across 110th Street (1972) Electroz  0 / 0   1.43 GB   2017-02-07 22:00 
Ваш часовий пояс: GMT + 2 Години

Нова тема   Відповісти