Гноми вдома / Gnome Alone (2017) Remux 1080p Ukr/Eng

Нові коментарі

Нова тема   Відповісти
Автор Повідомлення
staf777 
Відео Гуртом - підтримка та поширення
Відео Гуртом - підтримка та поширення


З нами з: 16.11.16
Востаннє: 22.02.20
Повідомлень: 3508

2018-07-01 23:58  
Гноми вдома / Gnome Alone (2017) Remux 1080p Ukr/Eng

Гноми вдома / Gnome Alone (2017) Remux 1080p Ukr/Eng


Жанр: анімація, комедія, сімейний
Країна: США, Велика Британія, Канада



Кінокомпанія: Vanguard Animation, 3QU Media, Cinesite Animation, SC Films International
Режисер: Пітер Лепеніотіс, Шеллі Шеной
Актори: Беккі Джі, Джош Пек, Олівія Голт, Девід Кокнер, Патрік Стамп та інші

Сюжет:
Дівчинка на ім’я Хлоя разом з батьками переїжджає у новий будинок. Власне не такий він і новий – це старий маєток, у кожному кутку якого можна знайти щось таємниче і цікаве. Найдивовижніше з побаченого – безліч фігурок садових гномів, які чомусь зберігаються не на подвір’ї, а у самому будинку. Коли ніхто з людей не бачить, вони оживають. Головна місія цих безстрашних воїнів – протистояти появі у світі людей Троггів. Це безжальні істоти та ненажери , які прагнуть заволодіти людським світом. І оскільки Хлоя вже посвячена у тонкощі цієї одвічної боротьби, то вона, разом зі своїм новим другом Ліамом, береться допомагати хоробрим гномам захищати світ від Троггів.


Тривалість: 01:25:15
Якість: Remux 1080p
Відео:
кодек:
розмір кадру: 1920x1080
бітрейт: 26,1 Mб/с

Аудіо # 1:
мова: українська
переклад: професійний дубльований | студія AAA-Sound
кодек: 5.1
бітрейт: 384 кб/с
Інформація про дубляж

Переклад: Юлії Когут
Режисер дубляжу та звукорежисер перезапису: Олександр Єфімов
Ролі дублювали: Антоніна Якушева, Павло Скороходько, Катерина Буцька, Дмитро Завадський, Юлія Перенчук, Ярослав Чорненький, Ірина Грей, Михайло Кришталь, Катерина Брайковська, Андрій Альохін, Андрій Федінчик та інші.
Аудіо # 2:
мова: англійська
переклад: оригінал
кодек: -HD MA 5.1
бітрейт: 2117 кб/с
Info
General
Unique ID : 198860984198097977186033998529216096611 (0x959B3B801F58A447A889E5AD2117A963)
Complete name : H:\ Gnome Alone (2017) Remux 1080p[Ukr][Eng][Hurtom].
Format :
Format version : Version 4 / Version 2
File size : 17.0 GiB
Duration : 1 h 25 min
Overall bit rate mode : Variable
Overall bit rate : 28.6 Mb/s
Movie name : Gnome Alone (2017) Remux 1080p[Ukr][Eng][Hurtom]
Encoded date : UTC 2018-07-02 05:27:30
Writing application : v9.8.0 ('Kuglblids') 64bit
Writing library : libebml v1.3.4 + v1.4.5
Cover : Yes
Attachments : cover.jpg

Video
ID : 1
Format : AVC
Format/Info : Advanced Video Codec
Format profile : [email protected]
Format settings : CABAC / 3 Ref Frames
Format settings, CABAC : Yes
Format settings, ReFrames : 3 frames
Codec ID : V_MPEG4/ISO/AVC
Duration : 1 h 25 min
Bit rate mode : Variable
Bit rate : 26.1 Mb/s
Maximum bit rate : 37.0 Mb/s
Width : 1 920 pixels
Height : 1 080 pixels
Display aspect ratio : 16:9
Frame rate mode : Constant
Frame rate : 23.976 (24000/1001) FPS
Color space : YUV
Chroma subsampling : 4:2:0
Bit depth : 8 bits
Scan type : Progressive
Bits/(Pixel*Frame) : 0.525
Stream size : 15.5 GiB (91%)
Language : German
Default : Yes
Forced : No

Audio #1
ID : 2
Format : AC-3
Format/Info : Audio Coding 3
Codec ID : A_AC3
Duration : 1 h 25 min
Bit rate mode : Constant
Bit rate : 384 kb/s
Channel(s) : 6 channels
Channel positions : Front: L C R, Side: L R, LFE
Sampling rate : 48.0 kHz
Frame rate : 31.250 FPS (1536 SPF)
Bit depth : 16 bits
Compression mode : Lossy
Stream size : 234 MiB (1%)
Title : iTunes
Language : Ukrainian
Service kind : Complete Main
Default : Yes
Forced : Yes

Audio #2
ID : 3
Format :
Format/Info : Digital Theater Systems
Format profile : MA / Core
Codec ID : A_DTS
Duration : 1 h 25 min
Bit rate mode : Variable / Constant
Bit rate : 2 117 kb/s / 1 509 kb/s
Channel(s) : 6 channels
Channel positions : Front: L C R, Side: L R, LFE
Sampling rate : 48.0 kHz
Frame rate : 93.750 FPS (512 SPF)
Bit depth : 16 bits
Compression mode : Lossless / Lossy
Stream size : 1.26 GiB (7%)
Title : Original
Language : English
Default : No
Forced : No

Menu
00:00:00.000 : en:00:00:00.000
00:07:22.651 : en:00:07:22.651
00:14:43.841 : en:00:14:43.841
00:20:28.519 : en:00:20:28.519
00:26:10.778 : en:00:26:10.778
00:32:48.466 : en:00:32:48.466
00:38:50.703 : en:00:38:50.703
00:46:32.248 : en:00:46:32.248
00:53:05.724 : en:00:53:05.724
00:59:11.131 : en:00:59:11.131
01:06:13.386 : en:01:06:13.386
01:14:18.996 : en:01:14:18.996
Скріншоти



Джерело: &
Особиста оцінка: 0 - не дивився


Золотий реліз (завантажене не впливає на рейтинг)
 Трекер:    Зареєстрований   

Завантажити / скачати мультфільм українською



відео для новачків



 Зареєстрований:   2018-07-02 08:07
 Розмір:   17.04 GB 
 Оцінка мультфільму:   9.6/10 (Голосів: 11)
   
Інші релізи
   Гноми вдома / Gnome Alone (2017) Electroz  12 / 0   1.42 GB   2018-07-04 22:32 
   Гноми вдома / Gnome Alone (2017) 720p Ukr/Eng 11FrYkT  8 / 0   1.89 GB   2018-07-03 17:49 
   Гноми вдома / Gnome Alone (2017) AVC Ukr/Eng 11FrYkT  14 / 1   1.61 GB   2018-07-02 17:05 
   Гноми вдома / Gnome Alone (2017) 1080p Electroz  20 / 1   3.14 GB   2018-04-03 14:45 
Ваш часовий пояс: GMT + 2 Години

Нова тема   Відповісти