Від сутінків до світанку 2: Криваві гроші Техасу (Від заходу до світанку 2: Криваві гроші Техасу) / From Dusk Till Dawn 2: Texas Blood Money (1999) 1080p 2xUkr/Eng | Sub Eng

Нові коментарі

Нова тема   Відповісти
Автор Повідомлення
staf777 
Відео Гуртом - підтримка та поширення
Відео Гуртом - підтримка та поширення


З нами з: 16.11.16
Востаннє: 26.09.20
Повідомлень: 4044

2018-07-01 22:20  
Від сутінків до світанку 2: Криваві гроші Техасу (Від заходу до світанку 2: Криваві гроші Техасу) / From Dusk Till Dawn 2: Texas Blood Money (1999) 1080p 2xUkr/Eng | Sub Eng

Від сутінків до світанку 2: Криваві гроші Техасу (Від заходу до світанку 2: Криваві гроші Техасу) / From Dusk Till Dawn 2: Texas Blood Money (1999) 1080p 2xUkr/Eng | Sub Eng


Жанр: екшн, кримінальний, жахи, трилер
Країна: США



Кінокомпанія: A Band Apart, Dimension Films, Los Hooligans Productions
Режисер: Скот Спіґел
Актори: Роберт Патрік, Бо Гопкінс, Дуан Вайтакер, М'юз Вотсон, Брет Гарельсон, Реймонд Крус, Денні Трехо

Сюжет:
П'ятеро крутих хлопців вирішують пограбувати банк у Мексиці. Вони ще не зрушили з місця, а поліція вже сиділа на хвості, розшукуючи злочинця, що втік з-під варти, їхнього спільника Лютера. З ним Бак призначив зустріч у дорозі. Усе ледь не зірвалося, коли вночі, неподалік від бару 'Шалені цицьки', у Лютера зламалася машина...


Тривалість: 01:28:06
Якість: 1080p
Відео:
кодек:
розмір кадру: 1920x1080
бітрейт: 9888 кб/с

Аудіо # 1:
мова: українська
переклад: багатоголосий закадровий
кодек: 2.0
бітрейт: 192 кб/с

Аудіо # 2:
мова: українська
переклад: багатоголосий закадровий
кодек: 2.0
бітрейт: 192 кб/с

Аудіо # 3:
мова: англійська
переклад: оригінал
кодек: 5.1
бітрейт: 384 кб/с

Субтитри # 1-2:
мова: англійська
тип: програмні (м'які)
формат: *.srt
Info
General
Unique ID : 190811930273525802644332776650532526137 (0x8F8D0A80AE40ADD0B7A30C3F5A591839)
Complete name : G:\Майбутні релізи\ From Dusk Till Dawn 2 Texas Blood Money (1999) 1080p [2xUkr,Eng][Hurtom].
Format :
Format version : Version 4 / Version 2
File size : 6.56 GiB
Duration : 1 h 28 min
Overall bit rate : 10.7 Mb/s
Movie name : From Dusk Till Dawn 2: Texas Blood Money (1999) 1080p [2xUkr,Eng][Hurtom]
Encoded date : UTC 2018-07-01 18:30:18
Writing application : v9.8.0 ('Kuglblids') 64bit
Writing library : libebml v1.3.4 + v1.4.5
Cover : Yes
Attachments : cover.jpg

Video
ID : 1
Format : AVC
Format/Info : Advanced Video Codec
Format profile : [email protected]
Format settings : CABAC / 4 Ref Frames
Format settings, CABAC : Yes
Format settings, ReFrames : 4 frames
Codec ID : V_MPEG4/ISO/AVC
Duration : 1 h 28 min
Bit rate : 9 888 kb/s
Width : 1 920 pixels
Height : 1 080 pixels
Display aspect ratio : 16:9
Frame rate mode : Constant
Frame rate : 23.976 (24000/1001) FPS
Color space : YUV
Chroma subsampling : 4:2:0
Bit depth : 8 bits
Scan type : Progressive
Bits/(Pixel*Frame) : 0.199
Stream size : 6.08 GiB (93%)
Writing library : core 120 r2120 0c7dab9
Encoding settings : cabac=1 / ref=4 / deblock=1:0:0 / analyse=0x3:0x133 / me=umh / subme=8 / psy=1 / psy_rd=1.00:0.00 / mixed_ref=1 / me_range=16 / chroma_me=1 / trellis=1 / 8x8dct=1 / cqm=0 / deadzone=21,11 / fast_pskip=0 / chroma_qp_offset=-2 / threads=18 / sliced_threads=0 / nr=0 / decimate=1 / interlaced=0 / bluray_compat=0 / constrained_intra=0 / bframes=3 / b_pyramid=2 / b_adapt=1 / b_bias=0 / direct=1 / weightb=1 / open_gop=0 / weightp=2 / keyint=250 / keyint_min=23 / scenecut=40 / intra_refresh=0 / rc_lookahead=40 / rc=2pass / mbtree=1 / bitrate=9888 / ratetol=1.0 / qcomp=0.60 / qpmin=0 / qpmax=69 / qpstep=4 / cplxblur=20.0 / qblur=0.5 / ip_ratio=1.40 / aq=1:1.00
Language : English
Default : Yes
Forced : No

Audio #1
ID : 2
Format : AC-3
Format/Info : Audio Coding 3
Codec ID : A_AC3
Duration : 1 h 28 min
Bit rate mode : Constant
Bit rate : 192 kb/s
Channel(s) : 2 channels
Channel positions : Front: L R
Sampling rate : 48.0 kHz
Frame rate : 31.250 FPS (1536 SPF)
Bit depth : 16 bits
Compression mode : Lossy
Stream size : 121 MiB (2%)
Title : [UA-MVO-ICTV]
Language : Ukrainian
Service kind : Complete Main
Default : Yes
Forced : Yes

Audio #2
ID : 3
Format : AC-3
Format/Info : Audio Coding 3
Codec ID : A_AC3
Duration : 1 h 28 min
Bit rate mode : Constant
Bit rate : 192 kb/s
Channel(s) : 2 channels
Channel positions : Front: L R
Sampling rate : 48.0 kHz
Frame rate : 31.250 FPS (1536 SPF)
Bit depth : 16 bits
Compression mode : Lossy
Stream size : 121 MiB (2%)
Title : [UA-MVO-2+2]
Language : Ukrainian
Service kind : Complete Main
Default : No
Forced : No

Audio #3
ID : 4
Format : AC-3
Format/Info : Audio Coding 3
Codec ID : A_AC3
Duration : 1 h 28 min
Bit rate mode : Constant
Bit rate : 384 kb/s
Channel(s) : 6 channels
Channel positions : Front: L C R, Side: L R, LFE
Sampling rate : 48.0 kHz
Frame rate : 31.250 FPS (1536 SPF)
Bit depth : 16 bits
Compression mode : Lossy
Stream size : 242 MiB (4%)
Language : English
Service kind : Complete Main
Default : No
Forced : No

Text #1
ID : 5
Format : UTF-8
Codec ID : S_TEXT/UTF8
Codec ID/Info : UTF-8 Plain Text
Duration : 1 h 28 min
Bit rate : 0 b/s
Count of elements : 2
Stream size : 170 Bytes (0%)
Language : English
Default : No
Forced : No

Text #2
ID : 6
Format : UTF-8
Codec ID : S_TEXT/UTF8
Codec ID/Info : UTF-8 Plain Text
Duration : 1 h 28 min
Bit rate : 33 b/s
Count of elements : 604
Stream size : 21.6 KiB (0%)
Language : English
Default : No
Forced : No
Скріншоти



За доріжку від ICTV дякую п. patriot2305, Sando7 За доріжку від 2+2 дякую пану Bohdan237, Arsenfpu, постер - Лунсар
Джерело: &
Особиста оцінка: 6 - третій сорт - не брак



Срібний реліз (на рейтинг впливає 50% завантаженого)
 Трекер:    Зареєстрований   

Завантажити / скачати фільм українською



відео для новачків



 Зареєстрований:   2018-07-01 22:20
 Розмір:   6.56 GB 
 Оцінка фільму:   10/10 (Голосів: 7)
   
Ваш часовий пояс: GMT + 2 Години

Нова тема   Відповісти