Формула 1. Сезон 2018. Етап 9. Гран-Прі Австрії. Гонка (01.07.2018) 1080p

Нові коментарі

Нова тема   Відповісти
Автор Повідомлення
sergiyko.5 
VIP


З нами з: 25.02.16
Востаннє: 20.10.20
Повідомлень: 3578

2018-07-01 20:52  
Формула 1. Сезон 2018. Етап 9. Гран-Прі Австрії. Гонка (01.07.2018) 1080p


Формула 1. Сезон 2018. Етап 9. Гран-Прі Австрії. Гонка (01.07.2018) 1080p

Жанр: Перегони Формули 1
Країна: Австрія
Телеканал: Перший автомобільний
Коментатор: Максим Подзігун

Опис:
Гонка дев'ятого етапу Гран-Прі Австрії 2018 року.


Тривалість: 01:52:41
Якість:

Відео: кодек: розмір кадру: 1920 х 1080 бітрейт: 8000 кб/с
Аудіо: мова: українська кодек: 2.0 бітрейт: 192 кб/с
Про файл:

General
Unique ID : 249744327362726584804832651680873362220 (0xBBE3020283C80C0D848915C6C526B32C)
Complete name : D:\Torrents\SPORT\Formula 1\F1.2018.Race\F1.2018.09.Austria.Race.1080p.IPTV.Ukr.
Format :
Format version : Version 4 / Version 2
File size : 6.42 GiB
Duration : 1 h 52 min
Overall bit rate : 8 158 kb/s
Encoded date : UTC 2018-07-01 17:42:56
Writing application : v24.0.0 ('Beyond The Pale') 64-bit
Writing library : libebml v1.3.6 + v1.4.9

Video
ID : 1
Format : AVC
Format/Info : Advanced Video Codec
Format profile : [email protected]
Format settings : CABAC / 4 Ref Frames
Format settings, CABAC : Yes
Format settings, ReFrames : 4 frames
Codec ID : V_MPEG4/ISO/AVC
Duration : 1 h 52 min
Bit rate : 7 963 kb/s
Width : 1 920 pixels
Height : 1 080 pixels
Display aspect ratio : 16:9
Frame rate mode : Constant
Frame rate : 25.000 FPS
Color space : YUV
Chroma subsampling : 4:2:0
Bit depth : 8 bits
Scan type : Progressive
Bits/(Pixel*Frame) : 0.154
Stream size : 6.27 GiB (98%)
Language : English
Default : Yes
Forced : No

Audio
ID : 2
Format :
Format/Info : Advanced Audio Codec
Format profile : LC
Codec ID : A_AAC-2
Duration : 1 h 52 min
Bit rate : 192 kb/s
Channel(s) : 2 channels
Channel positions : Front: L R
Sampling rate : 48.0 kHz
Frame rate : 46.875 FPS (1024 SPF)
Compression mode : Lossy
Stream size : 155 MiB (2%)
Language : Ukrainian
Default : Yes
Forced : No
Скріншоти:


Автор запису: Callistus


 Трекер:    Зареєстрований   

Завантажити / скачати торрент



відео для новачків



 Зареєстрований:   2018-07-01 20:52
 Розмір:   6.42 GB 
 Оцінка:   9.6/10 (Голосів: 25)
   
Umbrella.Corps 
Свій


З нами з: 09.04.17
Востаннє: 27.09.20
Повідомлень: 60

2018-07-01 21:00  
о, спс)
tadqwer 
Новенький


З нами з: 24.12.16
Востаннє: 23.04.20
Повідомлень: 1

2018-07-01 21:06  
Дякую
legioneRRR 
Частий відвідувач


З нами з: 02.01.15
Востаннє: 19.10.20
Повідомлень: 33

2018-07-01 21:08  
Дякую! Перебоїв з картинкою як в квалі не було?
sergiyko.5 
VIP


З нами з: 25.02.16
Востаннє: 20.10.20
Повідомлень: 3578

2018-07-01 21:17  
legioneRRR
Я не знаю, не дивився ще.

Light_Apollo 
Новенький


З нами з: 22.08.12
Востаннє: 17.10.20
Повідомлень: 7

2018-07-01 22:17  
Дякую!
kewn 
Новенький


З нами з: 28.09.09
Востаннє: 11.04.20
Повідомлень: 4

2018-07-02 13:53  
Щиро дякую)
Ваш часовий пояс: GMT + 2 Години

Нова тема   Відповісти