Мільйони Брюстера / Brewster's Millions (1985) Remux 1080p Ukr/Eng | Sub Eng

Нові коментарі

Нова тема   Відповісти
Автор Повідомлення
staf777 
Відео Гуртом - підтримка та поширення
Відео Гуртом - підтримка та поширення


З нами з: 16.11.16
Востаннє: 19.09.20
Повідомлень: 4018

2018-07-01 20:12  
Мільйони Брюстера / Brewster's Millions (1985) Remux 1080p Ukr/Eng | Sub Eng

Мільйони Брюстера / Brewster's Millions (1985) Remux 1080p Ukr/Eng | Sub Eng


Жанр: комедія
Країна: США



Кінокомпанія: Universal Pictures, Davis Entertainment, Lawrence Gordon Productions, Silver Pictures
Режисер: Волтер Гіл / Walter Hill
Актори: Річард Прайор / Richard Pryor, Джон Кенді / John Candy, Лонетт МакКі / Lonette McKee, Стівен Коллінз / Stephen Collins, Джері Орбак / Jerry Orbach, Пет Гінґл / Pat Hingle, Това Фелдшух / Tovah Feldshuh, Г'юм Кронін / Hume Cronyn, Джо Ґріфазі / Joe Grifasi, Пітер Джейсон / Peter Jason та інші

Сюжет:
Сюжет фільму будується на тому, що гравець бейсбольної команди отримує від померлого ексцентричного родича (білого мільйонера) спадщину в сотні мільйонів доларів. Однак не все так просто. У заповіті є підступний пункт. Шкідливий стариган вказав у записаному на кіноплівку заповіті, що повністю суму спадкоємець отримає лише в тому випадку, якщо за місяць зможе витратити 30 мільйонів доларів до останнього цента.


Тривалість: 01:41:09
Якість: Remux 1080p
Відео:
кодек:
розмір кадру: 1920x1080
бітрейт: 25 Mб/с

Аудіо # 1:
мова: українська
переклад: багатоголосий закадровий
кодек: 2.0
бітрейт: 192 кб/с

Аудіо # 2:
мова: англійська
переклад: оригінал
кодек: -HD MA 2.0
бітрейт: 1704 кб/с

Субтитри#1-2:
мова: англійська
тип: пререндерні
формат: *.pgs
Info
General
Unique ID : 209423239684624681626189367625417173939 (0x9D8D72E6E92F60E1C02D58C2B71B2BB3)
Complete name : G:\Майбутні релізи\ Brewster's Millions (1985) Remux 1080p[Ukr,Eng sub.Eng][Hurtom].
Format :
Format version : Version 4 / Version 2
File size : 19.0 GiB
Duration : 1 h 41 min
Overall bit rate mode : Variable
Overall bit rate : 26.9 Mb/s
Movie name : Brewster's Millions (1985) Remux 1080p[Ukr,Eng sub.Eng][Hurtom]
Encoded date : UTC 2018-07-07 15:24:04
Writing application : v24.0.0 ('Beyond The Pale') 64-bit
Writing library : libebml v1.3.6 + v1.4.9
Cover : Yes
Attachments : cover.jpg

Video
ID : 1
Format : AVC
Format/Info : Advanced Video Codec
Format profile : [email protected]
Format settings : CABAC / 4 Ref Frames
Format settings, CABAC : Yes
Format settings, ReFrames : 4 frames
Codec ID : V_MPEG4/ISO/AVC
Duration : 1 h 41 min
Bit rate mode : Variable
Bit rate : 25.0 Mb/s
Maximum bit rate : 37.0 Mb/s
Width : 1 920 pixels
Height : 1 080 pixels
Display aspect ratio : 16:9
Frame rate mode : Constant
Frame rate : 23.976 (24000/1001) FPS
Standard : NTSC
Color space : YUV
Chroma subsampling : 4:2:0
Bit depth : 8 bits
Scan type : Progressive
Bits/(Pixel*Frame) : 0.503
Stream size : 17.7 GiB (93%)
Default : Yes
Forced : No
Color range : Limited
Color primaries : BT.709
Transfer characteristics : BT.709
Matrix coefficients : BT.709

Audio #1
ID : 2
Format : AC-3
Format/Info : Audio Coding 3
Codec ID : A_AC3
Duration : 1 h 41 min
Bit rate mode : Constant
Bit rate : 192 kb/s
Channel(s) : 2 channels
Channel positions : Front: L R
Sampling rate : 48.0 kHz
Frame rate : 31.250 FPS (1536 SPF)
Bit depth : 16 bits
Compression mode : Lossy
Stream size : 139 MiB (1%)
Language : Ukrainian
Service kind : Complete Main
Default : Yes
Forced : Yes

Audio #2
ID : 3
Format :
Format/Info : Digital Theater Systems
Format profile : MA / Core
Codec ID : A_DTS
Duration : 1 h 41 min
Bit rate mode : Variable / Constant
Bit rate : 1 704 kb/s / 1 509 kb/s
Channel(s) : 2 channels
Channel positions : Front: L R
Sampling rate : 48.0 kHz
Frame rate : 93.750 FPS (512 SPF)
Bit depth : 16 bits
Compression mode : Lossless / Lossy
Stream size : 1.20 GiB (6%)
Language : English
Default : No
Forced : No

Text #1
ID : 4
Format : PGS
Muxing mode : zlib
Codec ID : S_HDMV/PGS
Codec ID/Info : Picture based subtitle format used on BDs/HD-DVDs
Duration : 1 h 35 min
Bit rate : 68.1 kb/s
Count of elements : 3299
Stream size : 46.7 MiB (0%)
Language : English
Default : No
Forced : No

Text #2
ID : 5
Format : PGS
Muxing mode : zlib
Codec ID : S_HDMV/PGS
Codec ID/Info : Picture based subtitle format used on BDs/HD-DVDs
Duration : 1 h 40 min
Bit rate : 59.5 kb/s
Count of elements : 3832
Stream size : 42.9 MiB (0%)
Language : English
Default : No
Forced : No
Скріншоти




Подяка РОМЕО за запис та omm за зведення української доріжки
Джерело: &
Особиста оцінка: 8 - мені сподобалося
Мільйони Брюстера / Brewster's Millions (1985) Remux 1080p Ukr/Eng | Sub Eng


Золотий реліз (завантажене не впливає на рейтинг)
 Трекер:    Зареєстрований   

Завантажити / скачати фільм українською



відео для новачків



 Зареєстрований:   2018-07-07 18:42
 Розмір:   19.03 GB 
 Оцінка фільму:   9.2/10 (Голосів: 12)
   
Lil`Antoni 
VIP


З нами з: 25.02.12
Востаннє: 19.09.20
Повідомлень: 841

2018-07-02 10:32  
О, крутий фільм, пам'ятаю його, декілька разів дивився Happy
Дякую.

bot 
робот


З нами з: 30.09.07
Востаннє: 26.05.05
Повідомлень: 25550

2018-07-07 18:40  
Тему перенесено з Анонси релізів до форуму Фільми в HD


staf777

Ваш часовий пояс: GMT + 2 Години

Нова тема   Відповісти