Мільйони Брюстера / Brewster's Millions (1985) AVC Ukr/Eng | Sub Eng

Нові коментарі

Нова тема   Відповісти
Автор Повідомлення
staf777 
Попереджень: 1
Попереджень: 1 


З нами з: 16.11.16
Востаннє: 23.09.18
Повідомлень: 1520

2018-07-01 19:43  
Мільйони Брюстера / Brewster's Millions (1985) AVC Ukr/Eng | Sub Eng

Мільйони Брюстера / Brewster's Millions (1985) AVC Ukr/Eng | Sub Eng


Жанр: комедія
Країна: США



Кінокомпанія: Universal Pictures, Davis Entertainment, Lawrence Gordon Productions, Silver Pictures
Режисер: Волтер Гіл / Walter Hill
Актори: Річард Прайор / Richard Pryor, Джон Кенді / John Candy, Лонетт МакКі / Lonette McKee, Стівен Коллінз / Stephen Collins, Джері Орбак / Jerry Orbach, Пет Гінґл / Pat Hingle, Това Фелдшух / Tovah Feldshuh, Г'юм Кронін / Hume Cronyn, Джо Ґріфазі / Joe Grifasi, Пітер Джейсон / Peter Jason та інші

Сюжет:
Сюжет фільму будується на тому, що гравець бейсбольної команди отримує від померлого ексцентричного родича (білого мільйонера) спадщину в сотні мільйонів доларів. Однак не все так просто. У заповіті є підступний пункт. Шкідливий стариган вказав у записаному на кіноплівку заповіті, що повністю суму спадкоємець отримає лише в тому випадку, якщо за місяць зможе витратити 30 мільйонів доларів до останнього цента.


Тривалість: 01:41:09
Якість: AVC
Відео:
кодек:
розмір кадру: 1024x554
бітрейт: 2200 кб/с

Аудіо # 1:
мова: українська
переклад: багатоголосий закадровий
кодек: 2.0
бітрейт: 192 кб/с

Аудіо # 2:
мова: англійська
переклад: оригінал
кодек: 2.0
бітрейт: 605 кб/с

Субтитри:
мова: англійська
тип: програмні (м'які)
формат: *.srt
Info
General
Unique ID : 245799009123441833122328149560304593196 (0xB8EB2ACD6EC7DA838C46B320946FE92C)
Complete name : H:\» Українське озвучення » Фільми\Комедія\Brewster's Millions (1985) AVC [Ukr,Eng sub.Eng] [Hurtom].
Format :
Format version : Version 4 / Version 2
File size : 2.12 GiB
Duration : 1 h 41 min
Overall bit rate mode : Variable
Overall bit rate : 2 999 kb/s
Movie name : Brewster's Millions (1985) [Ukr,Eng sub.Eng] 720p [Hurtom]
Encoded date : UTC 2018-07-01 16:13:54
Writing application : v9.8.0 ('Kuglblids') 64bit
Writing library : libebml v1.3.4 + v1.4.5
Cover : Yes
Attachments : cover.jpg

Video
ID : 1
Format : AVC
Format/Info : Advanced Video Codec
Format profile : [email protected]
Format settings : CABAC / 10 Ref Frames
Format settings, CABAC : Yes
Format settings, ReFrames : 10 frames
Codec ID : V_MPEG4/ISO/AVC
Duration : 1 h 41 min
Bit rate : 2 200 kb/s
Width : 1 024 pixels
Height : 554 pixels
Display aspect ratio : 1.85:1
Frame rate mode : Constant
Frame rate : 23.976 (24000/1001) FPS
Color space : YUV
Chroma subsampling : 4:2:0
Bit depth : 8 bits
Scan type : Progressive
Bits/(Pixel*Frame) : 0.162
Stream size : 1.55 GiB (73%)
Writing library : core 148 r2638 7599210
Encoding settings : cabac=1 / ref=10 / deblock=1:-3:-3 / analyse=0x3:0x133 / me=umh / subme=10 / psy=1 / psy_rd=1.00:0.10 / mixed_ref=1 / me_range=48 / chroma_me=1 / trellis=2 / 8x8dct=1 / cqm=0 / deadzone=21,11 / fast_pskip=0 / chroma_qp_offset=-3 / threads=6 / lookahead_threads=1 / sliced_threads=0 / nr=0 / decimate=1 / interlaced=0 / bluray_compat=0 / constrained_intra=0 / bframes=5 / b_pyramid=2 / b_adapt=2 / b_bias=0 / direct=3 / weightb=1 / open_gop=0 / weightp=2 / keyint=240 / keyint_min=22 / scenecut=40 / intra_refresh=0 / rc_lookahead=40 / rc=2pass / mbtree=1 / bitrate=2200 / ratetol=1.0 / qcomp=0.60 / qpmin=10 / qpmax=51 / qpstep=4 / cplxblur=20.0 / qblur=0.5 / ip_ratio=1.40 / aq=1:1.00
Language : English
Default : Yes
Forced : No

Audio #1
ID : 2
Format : AC-3
Format/Info : Audio Coding 3
Codec ID : A_AC3
Duration : 1 h 41 min
Bit rate mode : Constant
Bit rate : 192 kb/s
Channel(s) : 2 channels
Channel positions : Front: L R
Sampling rate : 48.0 kHz
Frame rate : 31.250 FPS (1536 SPF)
Bit depth : 16 bits
Compression mode : Lossy
Stream size : 139 MiB (6%)
Title : [UA-MVO-NLO]
Language : Ukrainian
Service kind : Complete Main
Default : Yes
Forced : Yes

Audio #2
ID : 3
Format :
Format/Info : Free Lossless Audio Codec
Codec ID : A_FLAC
Duration : 1 h 41 min
Bit rate mode : Variable
Bit rate : 605 kb/s
Channel(s) : 2 channels
Channel positions : Front: L R
Sampling rate : 48.0 kHz
Frame rate : 11.719 FPS (4096 SPF)
Bit depth : 16 bits
Stream size : 438 MiB (20%)
Title :
Writing library : libFLAC 1.2.1 (UTC 2007-09-17)
Language : English
Default : No
Forced : No

Text
ID : 4
Format : UTF-8
Codec ID : S_TEXT/UTF8
Codec ID/Info : UTF-8 Plain Text
Duration : 1 h 40 min
Bit rate : 96 b/s
Count of elements : 1739
Stream size : 71.0 KiB (0%)
Language : English
Default : No
Forced : No
Скріншоти




Подяка РОМЕО за запис та omm за синхронізацію української доріжки
Джерело: &
Особиста оцінка: 8 - мені сподобалося
Мільйони Брюстера / Brewster's Millions (1985) AVC Ukr/Eng | Sub Eng


Срібний реліз (на рейтинг впливає 50% завантаженого)
 Трекер:    Зареєстрований   

Завантажити / скачати фільм українською



відео для новачків



 Зареєстрований:   2018-07-01 19:44
 Розмір:   2.12 GB 
 Оцінка фільму:   9.9/10 (Голосів: 10)
   
igor911 
Відео Гуртом
Відео Гуртом


З нами з: 18.01.08
Востаннє: 23.09.18
Повідомлень: 11060

2018-07-01 22:07  
staf777 написано:
кодек: 2.0
бітрейт: 605 кб/с

прохання в авц релізах додавати звук в або .

Winged 
Частий відвідувач


З нами з: 11.10.09
Востаннє: 23.09.18
Повідомлень: 49

2018-07-02 11:55  
Чудовий фільм. Чудова комедія. Happy
Саминсусамин 
Новенький


З нами з: 17.04.16
Востаннє: 18.09.18
Повідомлень: 9

2018-07-11 11:29  
Гроші до грошей!
GERANIA 
Новенький


З нами з: 18.11.17
Востаннє: 08.09.18
Повідомлень: 3

2018-07-15 17:27  
Фільм бачив ще в юності .. дуже вдячний за реліз)))!!!!
Ваш часовий пояс: GMT + 2 Години

Нова тема   Відповісти