Перкалаба - Дискографія (11 альбомів) (2004-2013) [] | Ethno Rock

Нові коментарі

Нова тема   Відповісти
Останній раз роздавалося Yrn2020 (2018-09-23)
Автор Повідомлення
gosha.samovar 
VIP


З нами з: 08.09.10
Востаннє: 20.09.18
Повідомлень: 436

2018-07-01 17:21  
Перкалаба - Дискографія (11 альбомів) (2004-2013) [] | Ethno Rock

Перкалаба - Дискографія (11 альбомів) (2004-2013) [] | Ethno Rock


Стиль: Ethno Rock
Країна, місто: Україна, Івано-Франківськ
Видавець: BAd TaStE, Taras Bulba Entertainment, Familia Perkalaba, гурт
Альбоми:
    2004 - Свято грибів і форелів


    01. 220
    02. Бугай
    03. Гулєй
    04. Свято грибів і форелів
    05. Любові поклик ау-уа (feat Ірена Карпа (Фактично Самі))
    06. Горрри! [0:03:25.30]
    07. Льотчик (in memoriam Толік Гармаш)
    08. Каб'юк і ахтемішин
    09. Bormenzal
    10. Теща
    11. Зозулица
    12. Парагвай
    13. Голяк
    BONUS VIDEO:
    Кліп "Парагвай"
    Кліп "Горрри!"
    EAC log

    Exact Audio Copy V1.0 beta 3 from 29. August 2011

    Отчёт EAC об извлечении, выполненном 14. сентября 2014, 20:49

    Перкалаба / Свято грибів і форелів

    Дисковод: HL-DT-STDVD-RAM GSA-H58N Adapter: 0 ID: 0

    Режим чтения : Достоверность
    Использование точного потока : Да
    Отключение кэша аудио : Да
    Использование указателей C2 : Нет

    Коррекция смещения при чтении : 102
    Способность читать области Lead-in и Lead-out : Нет
    Заполнение пропущенных сэмплов тишиной : Да
    Удаление блоков с тишиной в начале и конце : Нет
    При вычислениях CRC использовались нулевые сэмплы : Да
    Интерфейс : Встроенный Win32-интерфейс для Win NT/2000

    Выходной формат : Пользовательский кодировщик
    Выбранный битрейт : 1024 kBit/s
    Качество : Высокий
    Добавление ID3-тега : Нет
    Утилита сжатия : D:\soft_2\EAC\Exact Audio Copy\\.exe
    Дополнительные параметры : -V -8 -T "Date=%year%" -T "Genre=%genre%" %source%

    TOC извлечённого CD

    Трек | Старт | Длительность | Начальный сектор | Конечный сектор
    ---------------------------------------------------------------------
    1 | 0:00.00 | 1:13.02 | 0 | 5476
    2 | 1:13.02 | 2:36.71 | 5477 | 17247
    3 | 3:49.73 | 2:19.53 | 17248 | 27725
    4 | 6:09.51 | 1:51.14 | 27726 | 36064
    5 | 8:00.65 | 6:47.46 | 36065 | 66635
    6 | 14:48.36 | 3:25.30 | 66636 | 82040
    7 | 18:13.66 | 5:03.28 | 82041 | 104793
    8 | 23:17.19 | 4:53.71 | 104794 | 126839
    9 | 28:11.15 | 4:16.40 | 126840 | 146079
    10 | 32:27.55 | 3:58.35 | 146080 | 163964
    11 | 36:26.15 | 2:57.58 | 163965 | 177297
    12 | 39:23.73 | 3:48.30 | 177298 | 194427
    13 | 43:12.28 | 2:18.06 | 194428 | 204783
    14 | 48:02.34 | 13:50.32 | 216184 | 278465

    Характеристики диапазона извлечения и сообщения об ошибках

    Выбранный диапазон

    Имя файла N:\Роздачі\Перкалаба\Перкалаба\2004 - Свято грибів і форелів\Перкалаба - Свято грибів і форелів.wav

    Пиковый уровень 100.0 %
    Скорость извлечения 2.3 X
    Качество диапазона 99.9 %
    CRC теста DB273576
    CRC копии DB273576
    Копирование... OK

    Ошибок не произошло

    AccurateRip: сводка

    Трек 1 точность не определена (достоверность 2) [63A963B7], AccurateRip вернул [1C2506DB] (AR v2)
    Трек 2 точность не определена (достоверность 2) [A0EFE2CC], AccurateRip вернул [C0BFB84F] (AR v2)
    Трек 3 точность не определена (достоверность 2) [5A253E91], AccurateRip вернул [66425B5B] (AR v2)
    Трек 4 точность не определена (достоверность 2) [A09ADA8F], AccurateRip вернул [DA4D9648] (AR v2)
    Трек 5 точность не определена (достоверность 2) [7ED1B01B], AccurateRip вернул [455440B1] (AR v2)
    Трек 6 точность не определена (достоверность 2) [B44E4E5F], AccurateRip вернул [4E048910] (AR v2)
    Трек 7 точность не определена (достоверность 2) [C324EEC0], AccurateRip вернул [F2DFC306] (AR v2)
    Трек 8 точность не определена (достоверность 2) [81BA5B1E], AccurateRip вернул [333B2758] (AR v2)
    Трек 9 точность не определена (достоверность 2) [806EAA71], AccurateRip вернул [D8272FFC] (AR v2)
    Трек 10 точность не определена (достоверность 2) [42B4976B], AccurateRip вернул [121C3192] (AR v2)
    Трек 11 точность не определена (достоверность 2) [2E3FFC0B], AccurateRip вернул [77297BF4] (AR v2)
    Трек 12 точность не определена (достоверность 2) [A26195A6], AccurateRip вернул [C97294FC] (AR v2)
    Трек 13 точность не определена (достоверность 2) [2A565730], AccurateRip вернул [410E246D] (AR v2)

    Ни один трек не прошёл проверки на точность
    В вашей базе может быть иной вариант штамповки диска

    Конец отчёта

    ==== Контрольная сумма отчёта 16369E1D774756A5C105A262B5B671323D96AFBFFA3CDCFADF39A731B0DD0B36 ====
    Спектр



    Технічні характеристики відео
    Парагвай

    Тривалість:00:03:43
    кодек: MPEG 1
    розмір кадру:352x288 (4:3)
    бітрейт:1150kbps

    Аудіо:
    мова: українська
    кодек: MPEG
    бітрейт:224kbps
    Скріншоти









    Горрри! (варіант 1)

    Тривалість:00:03:31
    кодек: DivX 5
    розмір кадру:320x240
    бітрейт:356kbps

    Аудіо:
    мова: українська
    кодек: PCM
    бітрейт:1536kbps
    Скріншоти











    Горрри! (варіант 2)

    Тривалість:00:03:32
    кодек: MPEG1
    розмір кадру:384x288
    бітрейт:1150kbps

    Аудіо:
    мова: українська
    кодек: MPEG
    бітрейт:224kbps
    Скріншоти











    Виконавці:
      Андрій "Федот" Федотов - вокал, гітара
      Ярема Стецик - бас, бек-вокал
      Орест Гудима - тромбон, підспіви
      Володимир Шотурма - цимбали, підспіви
      Сергій Шваюк - труба, підспіви
      Сергій Леонов - гітара (9,10,11)
      Лев Скренткович - барабани
      Ігор Римик - барабани (4,9,11)
      Мірек - гітара (3,5,6,7)
      Ірена Карпа (гр."Фактично Самі") - плачі (5)


    Видавець: BAd TaStE ‎– btp-17
    Тривалість: 00:45:30
    Мова: українська
    Бітрейт: 977 кб/с
    2005 - Горрри!


    01. 220
    02. Бугай
    03. Гулєй (thanx to Sting)
    04. Свято грибів і форелів
    05. Любові поклик ау-уа (feat Ірена Карпа (Фактично Самі))
    06. Горрри!
    07. Льотчик (in memoriam Толік Гармаш)
    08. Каб'юк і ахтемішин
    09. Bormenzal
    10. Теща
    11. Зозулица
    12. Парагвай
    13. Голяк
    BONUS VIDEO:
    Кліп "Парагвай"
    Кліп "Горрри!"
    EAC log

    Exact Audio Copy V1.0 beta 3 from 29. August 2011

    Отчёт EAC об извлечении, выполненном 15. апреля 2014, 23:12

    Перкалаба / Горрри!

    Дисковод: PHILIPS SPD2519T Adapter: 2 ID: 0

    Режим чтения : Достоверность
    Использование точного потока : Да
    Отключение кэша аудио : Да
    Использование указателей C2 : Нет

    Коррекция смещения при чтении : 6
    Способность читать области Lead-in и Lead-out : Нет
    Заполнение пропущенных сэмплов тишиной : Да
    Удаление блоков с тишиной в начале и конце : Нет
    При вычислениях CRC использовались нулевые сэмплы : Да
    Интерфейс : Встроенный Win32-интерфейс для Win NT/2000

    Выходной формат : Пользовательский кодировщик
    Выбранный битрейт : 1024 kBit/s
    Качество : Высокий
    Добавление ID3-тега : Нет
    Утилита сжатия : D:\soft_2\EAC\Exact Audio Copy\\.exe
    Дополнительные параметры : -V -8 -T "Date=%year%" -T "Genre=%genre%" %source%

    TOC извлечённого CD

    Трек | Старт | Длительность | Начальный сектор | Конечный сектор
    ---------------------------------------------------------------------
    1 | 0:00.00 | 1:13.02 | 0 | 5476
    2 | 1:13.02 | 2:36.71 | 5477 | 17247
    3 | 3:49.73 | 2:19.53 | 17248 | 27725
    4 | 6:09.51 | 1:51.14 | 27726 | 36064
    5 | 8:00.65 | 6:47.46 | 36065 | 66635
    6 | 14:48.36 | 3:25.30 | 66636 | 82040
    7 | 18:13.66 | 5:03.28 | 82041 | 104793
    8 | 23:17.19 | 4:53.71 | 104794 | 126839
    9 | 28:11.15 | 4:16.40 | 126840 | 146079
    10 | 32:27.55 | 3:58.35 | 146080 | 163964
    11 | 36:26.15 | 2:57.58 | 163965 | 177297
    12 | 39:23.73 | 3:48.30 | 177298 | 194427
    13 | 43:12.28 | 2:18.06 | 194428 | 204783
    14 | 48:02.34 | 13:50.32 | 216184 | 278465

    Характеристики диапазона извлечения и сообщения об ошибках

    Выбранный диапазон

    Имя файла E:\Музіка!\from EAC\2005 - Горрри!\Перкалаба - Горрри!.wav

    Пиковый уровень 100.0 %
    Скорость извлечения 3.9 X
    Качество диапазона 100.0 %
    CRC теста 2C91B36D
    CRC копии 2C91B36D
    Копирование... OK

    Ошибок не произошло

    AccurateRip: сводка

    Трек 1 точность не определена (достоверность 2) [31389694], AccurateRip вернул [1C2506DB] (AR v2)
    Трек 2 точность не определена (достоверность 2) [660841AA], AccurateRip вернул [C0BFB84F] (AR v2)
    Трек 3 точность не определена (достоверность 2) [8D35279C], AccurateRip вернул [66425B5B] (AR v2)
    Трек 4 точность не определена (достоверность 2) [6DA1B267], AccurateRip вернул [DA4D9648] (AR v2)
    Трек 5 точность не определена (достоверность 2) [284DFA7F], AccurateRip вернул [455440B1] (AR v2)
    Трек 6 точность не определена (достоверность 2) [C6C540C0], AccurateRip вернул [4E048910] (AR v2)
    Трек 7 точность не определена (достоверность 2) [95C57929], AccurateRip вернул [F2DFC306] (AR v2)
    Трек 8 точность не определена (достоверность 2) [9B61D86D], AccurateRip вернул [333B2758] (AR v2)
    Трек 9 точность не определена (достоверность 2) [26C012DA], AccurateRip вернул [D8272FFC] (AR v2)
    Трек 10 точность не определена (достоверность 2) [74336D77], AccurateRip вернул [121C3192] (AR v2)
    Трек 11 точность не определена (достоверность 2) [F66CE8FB], AccurateRip вернул [77297BF4] (AR v2)
    Трек 12 точность не определена (достоверность 2) [F1A4C08F], AccurateRip вернул [C97294FC] (AR v2)
    Трек 13 точность не определена (достоверность 2) [21CF6ADC], AccurateRip вернул [410E246D] (AR v2)

    Ни один трек не прошёл проверки на точность
    В вашей базе может быть иной вариант штамповки диска

    Конец отчёта

    ==== Контрольная сумма отчёта 41E0323BD5DC454CB5600FE62B06F47A011AC075CF0BAA1D346AF4674C305D42 ====
    Спектр



    Технічні характеристики відео
    Парагвай

    Тривалість:00:03:43
    кодек: MPEG 1
    розмір кадру:352x288 (4:3)
    бітрейт:1150kbps

    Аудіо:
    мова: українська
    кодек: MPEG
    бітрейт:224kbps
    Скріншоти









    Горрри! (варіант 1)

    Тривалість:00:03:31
    кодек: DivX 5
    розмір кадру:320x240
    бітрейт:356kbps

    Аудіо:
    мова: українська
    кодек: PCM
    бітрейт:1536kbps
    Скріншоти











    Горрри! (варіант 2)

    Тривалість:00:03:32
    кодек: MPEG1
    розмір кадру:384x288
    бітрейт:1150kbps

    Аудіо:
    мова: українська
    кодек: MPEG
    бітрейт:224kbps
    Скріншоти











    Виконавці:
      Андрій "Федот" Федотов - вокал, гітара
      Ярема Стецик - бас, бек-вокал
      Орест Гудима - тромбон, підспіви
      Володимир Шотурма - цимбали, підспіви
      Сергій Шваюк - труба, підспіви
      Сергій Леонов - гітара (9,10,11)
      Лев Скренткович - барабани
      Ігор Римик - барабани (4,9,11)
      Мірек - гітара (3,5,6,7)
      Ірена Карпа (гр."Фактично Самі") - плачі (5)


    Видавець: Taras Bulba Entertainment ‎– TBE-024-2
    Тривалість: 00:45:30
    Мова: українська
    Бітрейт: 977 кб/с
    2006 - qzzaargh vs. Перкалаба


    01. Бугай
    02. Горрри!
    03. Гулєй
    04. Купатись голяка
    05. Любові поклик Ау-Уа
    06. Льотчик
    07. Свято грибів і форелів
    08. Теща
    EAC log

    Exact Audio Copy V1.0 beta 3 from 29. August 2011

    Отчёт EAC об извлечении, выполненном 17. июля 2014, 20:51

    qzzaargh vs. Перкалаба / qzzaargh vs. Перкалаба

    Дисковод: PHILIPS SPD2519T Adapter: 2 ID: 0

    Режим чтения : Достоверность
    Использование точного потока : Да
    Отключение кэша аудио : Да
    Использование указателей C2 : Нет

    Коррекция смещения при чтении : 6
    Способность читать области Lead-in и Lead-out : Нет
    Заполнение пропущенных сэмплов тишиной : Да
    Удаление блоков с тишиной в начале и конце : Нет
    При вычислениях CRC использовались нулевые сэмплы : Да
    Интерфейс : Встроенный Win32-интерфейс для Win NT/2000

    Выходной формат : Пользовательский кодировщик
    Выбранный битрейт : 1024 kBit/s
    Качество : Высокий
    Добавление ID3-тега : Нет
    Утилита сжатия : D:\soft_2\EAC\Exact Audio Copy\\.exe
    Дополнительные параметры : -V -8 -T "Date=%year%" -T "Genre=%genre%" %source%

    TOC извлечённого CD

    Трек | Старт | Длительность | Начальный сектор | Конечный сектор
    ---------------------------------------------------------------------
    1 | 0:00.00 | 3:47.16 | 0 | 17040
    2 | 3:47.16 | 5:45.45 | 17041 | 42960
    3 | 9:32.61 | 3:42.21 | 42961 | 59631
    4 | 13:15.07 | 6:40.70 | 59632 | 89701
    5 | 19:56.02 | 7:09.35 | 89702 | 121911
    6 | 27:05.37 | 5:36.24 | 121912 | 147135
    7 | 32:41.61 | 5:42.14 | 147136 | 172799
    8 | 38:24.00 | 5:53.66 | 172800 | 199340

    Характеристики диапазона извлечения и сообщения об ошибках

    Выбранный диапазон

    Имя файла N:\Роздачі\Перкалаба\Перкалаба\2006 - qzzaargh vs. Перкалаба\qzzaargh vs. Перкалаба - qzzaargh vs. Перкалаба.wav

    Пиковый уровень 100.0 %
    Скорость извлечения 6.9 X
    Качество диапазона 100.0 %
    CRC теста 092ED105
    CRC копии 092ED105
    Копирование... OK

    Ошибок не произошло

    AccurateRip: сводка

    Трек 1 : извлечено точно (доверие 2) [72721AE8] (AR v1)
    Трек 2 : извлечено точно (доверие 2) [2369F15B] (AR v1)
    Трек 3 : извлечено точно (доверие 2) [CDB4091E] (AR v1)
    Трек 4 : извлечено точно (доверие 2) [22066A45] (AR v1)
    Трек 5 : извлечено точно (доверие 2) [499DBCDF] (AR v1)
    Трек 6 : извлечено точно (доверие 2) [E5723441] (AR v1)
    Трек 7 : извлечено точно (доверие 2) [4FD2094A] (AR v1)
    Трек 8 : извлечено точно (доверие 2) [F9A1BFC0] (AR v1)

    Все треки извлечены точно

    Конец отчёта

    ==== Контрольная сумма отчёта 590021CC862EB7A5945C0E573C16A4A8BF618D255BFCCA6C01B6C4D174800D31 ====
    Спектр



    Виконавці:
      Qzzaargh (Сергій Кузьмінський) - реміксування, електронні інструменти

      Андрій "Федот" Федотов - вокал
      Ярема Стецик - тарелі, бек-вокал
      Ігор "Моряк"Шургот - бас-гітара
      Володимир "Вовєнджя" Шотурма - цимбали
      Серьога Шваюк - труба
      Віктор Степанюк - тромбон
      Ігорко Римик - барабани


    Видавець: atomcat ‎– №cat 002
    Тривалість: 00:44:18
    Мова: українська
    Бітрейт: 901 кб/с
    2007 - Говорить Івано-Франківськ


    01. Марш звідси!!!!!!
    02. Говорить Івано-Франківськ
    03. Просерамера (гімн Івано-Франківська)
    04. Розлабка (караоке)
    05. Червона фіра (слова і музика Сергій Леонідович Кузьмінський)
    06. Полька
    07. Швидко ау (грубабабагруба version)
    08. Чар даш?
    09. Фігурне катаніє
    10. Перда (використана тема з пісні Інгрід)
    11. Коровка
    12. 4 танкісти. Piosenka z serialu telewizyjnego "Czterej pancerni i pies" (Slowa: Agnieszka Osiecka muzyka: Adam Walacinski)
    13. Мажорний льотчик
    14. Кафельний памятник
    15. Тромба (муз. Ніно Россо)
    16. Ясени (муз. О. Білаш, сл. М. Ткач)
    17. Квітка

    Bonus (mp3)*
    01. Мудрий бо Німий (слова і музика Кузьма Скрябін)
    02. Бугаї (слова і музика Дмитро Добрийвечір)
    03. Жовтий коцик (муз. Kristie)
    EAC log

    Exact Audio Copy V1.0 beta 3 from 29. August 2011

    Отчёт EAC об извлечении, выполненном 6. декабря 2013, 12:58

    Перкалаба / Говорить Івано-Франківськ

    Дисковод: HL-DT-STDVD-RAM GSA-H58N Adapter: 0 ID: 0

    Режим чтения : Достоверность
    Использование точного потока : Да
    Отключение кэша аудио : Да
    Использование указателей C2 : Нет

    Коррекция смещения при чтении : 102
    Способность читать области Lead-in и Lead-out : Нет
    Заполнение пропущенных сэмплов тишиной : Да
    Удаление блоков с тишиной в начале и конце : Нет
    При вычислениях CRC использовались нулевые сэмплы : Да
    Интерфейс : Встроенный Win32-интерфейс для Win NT/2000

    Выходной формат : Пользовательский кодировщик
    Выбранный битрейт : 1024 kBit/s
    Качество : Высокий
    Добавление ID3-тега : Нет
    Утилита сжатия : D:\soft_2\EAC\Exact Audio Copy\\.exe
    Дополнительные параметры : -V -8 -T "Date=%year%" -T "Genre=%genre%" %source%

    TOC извлечённого CD

    Трек | Старт | Длительность | Начальный сектор | Конечный сектор
    ---------------------------------------------------------------------
    1 | 0:00.00 | 3:17.14 | 0 | 14788
    2 | 3:17.14 | 2:43.03 | 14789 | 27016
    3 | 6:00.17 | 4:18.67 | 27017 | 46433
    4 | 10:19.09 | 2:51.46 | 46434 | 59304
    5 | 13:10.55 | 4:45.15 | 59305 | 80694
    6 | 17:55.70 | 2:15.70 | 80695 | 90889
    7 | 20:11.65 | 4:05.09 | 90890 | 109273
    8 | 24:16.74 | 2:46.53 | 109274 | 121776
    9 | 27:03.52 | 2:38.45 | 121777 | 133671
    10 | 29:42.22 | 2:53.47 | 133672 | 146693
    11 | 32:35.69 | 5:47.26 | 146694 | 172744
    12 | 38:23.20 | 4:09.14 | 172745 | 191433
    13 | 42:32.34 | 5:12.30 | 191434 | 214863
    14 | 47:44.64 | 3:57.40 | 214864 | 232678
    15 | 51:42.29 | 6:12.03 | 232679 | 260581
    16 | 57:54.32 | 3:57.20 | 260582 | 278376
    17 | 61:51.52 | 0:05.26 | 278377 | 278777

    Характеристики диапазона извлечения и сообщения об ошибках

    Выбранный диапазон

    Имя файла N:\Роздачі\Перкалаба\2007 - Говорить Івано-Франківськ\Перкалаба - Говорить Івано-Франківськ.wav

    Пиковый уровень 97.7 %
    Скорость извлечения 2.8 X
    Качество диапазона 100.0 %
    CRC теста 55284080
    CRC копии 55284080
    Копирование... OK

    Ошибок не произошло

    AccurateRip: сводка

    Трек 1 : извлечено точно (доверие 3) [7A5EB8A4] (AR v1)
    Трек 2 : извлечено точно (доверие 3) [BA9DEAE4] (AR v1)
    Трек 3 : извлечено точно (доверие 3) [AACC306D] (AR v1)
    Трек 4 : извлечено точно (доверие 3) [E88F4B1E] (AR v1)
    Трек 5 : извлечено точно (доверие 3) [1CD66750] (AR v1)
    Трек 6 : извлечено точно (доверие 3) [51054265] (AR v1)
    Трек 7 : извлечено точно (доверие 3) [4EBE4FAE] (AR v1)
    Трек 8 : извлечено точно (доверие 3) [EE416B46] (AR v1)
    Трек 9 : извлечено точно (доверие 3) [6743A491] (AR v1)
    Трек 10 : извлечено точно (доверие 3) [B7E7CDAF] (AR v1)
    Трек 11 : извлечено точно (доверие 3) [FB806AC7] (AR v1)
    Трек 12 : извлечено точно (доверие 3) [C5001B44] (AR v1)
    Трек 13 : извлечено точно (доверие 3) [5A1AB518] (AR v1)
    Трек 14 : извлечено точно (доверие 3) [316629C7] (AR v1)
    Трек 15 : извлечено точно (доверие 3) [4C11597F] (AR v1)
    Трек 16 точность не определена (достоверность 3) [C191B018], AccurateRip вернул [A1795D1B] (AR v2)
    Трек 17 отсутствует в базе данных

    15 трек(и) скопированы точно
    1 трек(и) не удалось проверить на точность
    1 трек(и) не содержатся в базе AccurateRip

    Некоторые треки не прошли проверку на точность

    Конец отчёта

    ==== Контрольная сумма отчёта E33DDA1F6761ABD715A89FD1CC13142A84E3CE5B07B021CB7D386750A4D81996 ====
    Спектр



    Виконавці:
      Андрій "Федот" Федотов - вокал, гітара
      Ярема Стецик - бас, бек-вокал
      Володимир Шотурма - цимбали, підспіви
      Сергій Шваюк - труба, підспіви
      Орест Гудима - тромбон, підспіви
      Сергій Леонов - гітара
      Саня Сингаєвський - барабани
      Ігор Римик - перкусія
      Олег "Мох" Гнатів - продюсер, вокал


    Видавець: Taras Bulba Entertainment ‎– TBE-036-2
    Тривалість: 01:01:57 (+00:07:31)
    Мова: українська (окрім 12 - польська та 04, 06, 08, 17 - відсутня)
    Бітрейт: 956 кб/с

    *на жаль, ці треки, хоч і зазначені на поліграфії, проте на CD вони відсутні. Тож, я дозволив собі знайти їх у інтернеті та додати до роздачі (маючи на меті виключно передати альбом у повному обсязі)
    2007 - Горрри! (перевидання)


    01. 220
    02. Бугай
    03. Гулєй (thanx to Sting)
    04. Свято грибів і форелів
    05. Любові поклик ау-уа (feat Ірена Карпа (Фактично Самі))
    06. Горрри!
    07. Льотчик (in memoriam Толік Гармаш)
    08. Каб'юк і ахтемішин
    09. Bormenzal
    10. Теща
    11. Зозулица
    12. Парагвай
    13. Голяк
    BONUS VIDEO:
    Кліп "Парагвай"
    Кліп "Горрри!"
    EAC log
    Exact Audio Copy V1.0 beta 3 from 29. August 2011

    Отчёт EAC об извлечении, выполненном 17. июля 2014, 19:35

    Перкалаба / Горрри!

    Дисковод: PHILIPS SPD2519T Adapter: 2 ID: 0

    Режим чтения : Достоверность
    Использование точного потока : Да
    Отключение кэша аудио : Да
    Использование указателей C2 : Нет

    Коррекция смещения при чтении : 6
    Способность читать области Lead-in и Lead-out : Нет
    Заполнение пропущенных сэмплов тишиной : Да
    Удаление блоков с тишиной в начале и конце : Нет
    При вычислениях CRC использовались нулевые сэмплы : Да
    Интерфейс : Встроенный Win32-интерфейс для Win NT/2000

    Выходной формат : Пользовательский кодировщик
    Выбранный битрейт : 1024 kBit/s
    Качество : Высокий
    Добавление ID3-тега : Нет
    Утилита сжатия : D:\soft_2\EAC\Exact Audio Copy\\.exe
    Дополнительные параметры : -V -8 -T "Date=%year%" -T "Genre=%genre%" %source%

    TOC извлечённого CD

    Трек | Старт | Длительность | Начальный сектор | Конечный сектор
    ---------------------------------------------------------------------
    1 | 0:00.00 | 1:13.02 | 0 | 5476
    2 | 1:13.02 | 2:36.71 | 5477 | 17247
    3 | 3:49.73 | 2:19.53 | 17248 | 27725
    4 | 6:09.51 | 1:51.14 | 27726 | 36064
    5 | 8:00.65 | 6:47.46 | 36065 | 66635
    6 | 14:48.36 | 3:25.30 | 66636 | 82040
    7 | 18:13.66 | 5:03.28 | 82041 | 104793
    8 | 23:17.19 | 4:53.71 | 104794 | 126839
    9 | 28:11.15 | 4:16.40 | 126840 | 146079
    10 | 32:27.55 | 3:58.35 | 146080 | 163964
    11 | 36:26.15 | 2:57.58 | 163965 | 177297
    12 | 39:23.73 | 3:48.30 | 177298 | 194427
    13 | 43:12.28 | 2:18.06 | 194428 | 204783
    14 | 48:02.34 | 13:50.32 | 216184 | 278465

    Характеристики диапазона извлечения и сообщения об ошибках

    Выбранный диапазон

    Имя файла E:\Музіка!\from EAC\Горрри!\Перкалаба - Горрри!.wav

    Пиковый уровень 100.0 %
    Скорость извлечения 2.3 X
    Качество диапазона 100.0 %
    CRC теста AAA39ADA
    CRC копии AAA39ADA
    Копирование... OK

    Ошибок не произошло

    AccurateRip: сводка

    Трек 1 : извлечено точно (доверие 2) [1C2506DB] (AR v1)
    Трек 2 : извлечено точно (доверие 2) [C0BFB84F] (AR v1)
    Трек 3 : извлечено точно (доверие 2) [66425B5B] (AR v1)
    Трек 4 : извлечено точно (доверие 2) [DA4D9648] (AR v1)
    Трек 5 : извлечено точно (доверие 2) [455440B1] (AR v1)
    Трек 6 : извлечено точно (доверие 2) [4E048910] (AR v1)
    Трек 7 : извлечено точно (доверие 2) [F2DFC306] (AR v1)
    Трек 8 : извлечено точно (доверие 2) [333B2758] (AR v1)
    Трек 9 : извлечено точно (доверие 2) [D8272FFC] (AR v1)
    Трек 10 : извлечено точно (доверие 2) [121C3192] (AR v1)
    Трек 11 : извлечено точно (доверие 2) [77297BF4] (AR v1)
    Трек 12 : извлечено точно (доверие 2) [C97294FC] (AR v1)
    Трек 13 : извлечено точно (доверие 2) [410E246D] (AR v1)

    Все треки извлечены точно

    Конец отчёта

    ==== Контрольная сумма отчёта 23A432CD482492FFE61AFB1EED9C6EE5C5B39A17925A31B32B07ED3CCD32DF78 ====
    Спектр



    Технічні характеристики відео
    Парагвай

    Тривалість:00:03:43
    кодек: MPEG 1
    розмір кадру:352x288 (4:3)
    бітрейт:1150kbps

    Аудіо:
    мова: українська
    кодек: MPEG
    бітрейт:224kbps
    Скріншоти









    Горрри! (варіант 1)

    Тривалість:00:03:31
    кодек: DivX 5
    розмір кадру:320x240
    бітрейт:356kbps

    Аудіо:
    мова: українська
    кодек: PCM
    бітрейт:1536kbps
    Скріншоти











    Горрри! (варіант 2)

    Тривалість:00:03:32
    кодек: MPEG1
    розмір кадру:384x288
    бітрейт:1150kbps

    Аудіо:
    мова: українська
    кодек: MPEG
    бітрейт:224kbps
    Скріншоти











    Виконавці:
      Андрій "Федот" Федотов - вокал, гітара
      Ярема Стецик - бас, бек-вокал
      Орест Гудима - тромбон, підспіви
      Володимир Шотурма - цимбали, підспіви
      Сергій Шваюк - труба, підспіви
      Сергій Леонов - гітара (9,10,11)
      Лев Скренткович - барабани
      Ігор Римик - барабани (4,9,11)
      Мірек - гітара (3,5,6,7)
      Ірена Карпа (гр."Фактично Самі") - плачі (5)


    Видавець: Наш Формат
    Тривалість: 00:45:30
    Мова: українська
    Бітрейт: 977 кб/с
    2009 - !Чидро

    01. автобус (автобусу мерседесови білому спринтерови)
    02. чидроти
    03. миєбітлс
    04. крила
    05. глина
    06. ПЗШП
    07. пан
    08. тікобивиходили
    09. пісюни (шатунам)
    10. прерії
    11. waltz
    12. колискова
    EAC log

    Exact Audio Copy V1.0 beta 3 from 29. August 2011

    Отчёт EAC об извлечении, выполненном 13. декабря 2013, 17:17

    Перкалаба / !Чидро

    Дисковод: HL-DT-STDVD-RAM GSA-H58N Adapter: 0 ID: 0

    Режим чтения : Достоверность
    Использование точного потока : Да
    Отключение кэша аудио : Да
    Использование указателей C2 : Нет

    Коррекция смещения при чтении : 102
    Способность читать области Lead-in и Lead-out : Нет
    Заполнение пропущенных сэмплов тишиной : Да
    Удаление блоков с тишиной в начале и конце : Нет
    При вычислениях CRC использовались нулевые сэмплы : Да
    Интерфейс : Встроенный Win32-интерфейс для Win NT/2000

    Выходной формат : Пользовательский кодировщик
    Выбранный битрейт : 1024 kBit/s
    Качество : Высокий
    Добавление ID3-тега : Нет
    Утилита сжатия : D:\soft_2\EAC\Exact Audio Copy\\.exe
    Дополнительные параметры : -V -8 -T "Date=%year%" -T "Genre=%genre%" %source%

    TOC извлечённого CD

    Трек | Старт | Длительность | Начальный сектор | Конечный сектор
    ---------------------------------------------------------------------
    1 | 0:00.00 | 5:29.64 | 0 | 24738
    2 | 5:29.64 | 4:23.12 | 24739 | 44475
    3 | 9:53.01 | 4:51.24 | 44476 | 66324
    4 | 14:44.25 | 3:06.54 | 66325 | 80328
    5 | 17:51.04 | 3:55.59 | 80329 | 98012
    6 | 21:46.63 | 6:22.58 | 98013 | 126720
    7 | 28:09.46 | 3:01.36 | 126721 | 140331
    8 | 31:11.07 | 4:32.66 | 140332 | 160797
    9 | 35:43.73 | 4:04.23 | 160798 | 179120
    10 | 39:48.21 | 2:43.46 | 179121 | 191391
    11 | 42:31.67 | 4:19.23 | 191392 | 210839
    12 | 46:51.15 | 8:51.56 | 210840 | 250720

    Характеристики диапазона извлечения и сообщения об ошибках

    Выбранный диапазон

    Имя файла N:\Роздачі\Перкалаба\2009 - !Чидро\Перкалаба - !Чидро.wav

    Пиковый уровень 98.0 %
    Скорость извлечения 2.6 X
    Качество диапазона 99.9 %
    CRC теста 29A8DD15
    CRC копии 29A8DD15
    Копирование... OK

    Ошибок не произошло

    AccurateRip: сводка

    Трек 1 отсутствует в базе данных
    Трек 2 отсутствует в базе данных
    Трек 3 отсутствует в базе данных
    Трек 4 отсутствует в базе данных
    Трек 5 отсутствует в базе данных
    Трек 6 отсутствует в базе данных
    Трек 7 отсутствует в базе данных
    Трек 8 отсутствует в базе данных
    Трек 9 отсутствует в базе данных
    Трек 10 отсутствует в базе данных
    Трек 11 отсутствует в базе данных
    Трек 12 отсутствует в базе данных

    Ни одного трека нет в базе AccurateRip

    Конец отчёта

    ==== Контрольная сумма отчёта 59BD9E5AA8BB370EEA472DE1D6FB9FEAB26964BF0BF538267B5B300DD1A93F5F ====
    Спектр



    Виконавці:
      Андрій "Федот" Федотов - вокал
      Ярема Стецик - тарелі, бек-вокал
      Ігор "Моряк" Шугот - бас-гітара
      Володимир "Вовєнджя" Шотурма - цимбали
      Серьога Шваюк - труба
      Віктор Степанюк - тромбон
      Ігорко Римик - барабани


    Видавець: Taras Bulba Entertainment - RR CD 972
    Тривалість: 00:55:43
    Мова: українська (окрім 11 - німецька)
    Бітрейт: 1042 кб/с
    2010 - Ундеропера (2 CD)

    1 відділення

    01. Чидроти
    02. Парагвай [фанкі акустік]
    03. Фігурне Катаніє
    04. Теща
    05. Зозулица
    06. Каб'юк і Ахтемішин
    07. Глина
    08. Пан
    09. Мажорний Льотчик
    10. ПЗШП
    11. Швидкоау + Голяк
    12. Тромба
    13. Ясени
    EAC log

    Exact Audio Copy V1.0 beta 3 from 29. August 2011

    Отчёт EAC об извлечении, выполненном 17. января 2014, 17:41

    Перкалаба / Ундеропера

    Дисковод: PHILIPS SPD2519T Adapter: 2 ID: 0

    Режим чтения : Достоверность
    Использование точного потока : Да
    Отключение кэша аудио : Да
    Использование указателей C2 : Нет

    Коррекция смещения при чтении : 6
    Способность читать области Lead-in и Lead-out : Нет
    Заполнение пропущенных сэмплов тишиной : Да
    Удаление блоков с тишиной в начале и конце : Нет
    При вычислениях CRC использовались нулевые сэмплы : Да
    Интерфейс : Встроенный Win32-интерфейс для Win NT/2000

    Выходной формат : Пользовательский кодировщик
    Выбранный битрейт : 1024 kBit/s
    Качество : Высокий
    Добавление ID3-тега : Нет
    Утилита сжатия : D:\soft_2\EAC\Exact Audio Copy\\.exe
    Дополнительные параметры : -V -8 -T "Date=%year%" -T "Genre=%genre%" %source%

    TOC извлечённого CD

    Трек | Старт | Длительность | Начальный сектор | Конечный сектор
    ---------------------------------------------------------------------
    1 | 0:00.00 | 6:15.70 | 0 | 28194
    2 | 6:15.70 | 5:52.51 | 28195 | 54645
    3 | 12:08.46 | 2:37.72 | 54646 | 66492
    4 | 14:46.43 | 5:19.27 | 66493 | 90444
    5 | 20:05.70 | 5:04.65 | 90445 | 113309
    6 | 25:10.60 | 4:13.00 | 113310 | 132284
    7 | 29:23.60 | 3:52.47 | 132285 | 149731
    8 | 33:16.32 | 3:06.37 | 149732 | 163718
    9 | 36:22.69 | 7:35.34 | 163719 | 197877
    10 | 43:58.28 | 6:03.46 | 197878 | 225148
    11 | 50:01.74 | 6:43.57 | 225149 | 255430
    12 | 56:45.56 | 7:32.28 | 255431 | 289358
    13 | 64:18.09 | 3:25.72 | 289359 | 304805

    Характеристики диапазона извлечения и сообщения об ошибках

    Выбранный диапазон

    Имя файла N:\Роздачі\Перкалаба\2009 - Ундеропера (2 CD)\1 відділення\Перкалаба - Ундеропера.wav

    Пиковый уровень 97.7 %
    Скорость извлечения 6.1 X
    Качество диапазона 100.0 %
    CRC теста 687C65D8
    CRC копии 687C65D8
    Копирование... OK

    Ошибок не произошло

    AccurateRip: сводка

    Трек 1 отсутствует в базе данных
    Трек 2 отсутствует в базе данных
    Трек 3 отсутствует в базе данных
    Трек 4 отсутствует в базе данных
    Трек 5 отсутствует в базе данных
    Трек 6 отсутствует в базе данных
    Трек 7 отсутствует в базе данных
    Трек 8 отсутствует в базе данных
    Трек 9 отсутствует в базе данных
    Трек 10 отсутствует в базе данных
    Трек 11 отсутствует в базе данных
    Трек 12 отсутствует в базе данных
    Трек 13 отсутствует в базе данных

    Ни одного трека нет в базе AccurateRip

    Конец отчёта

    ==== Контрольная сумма отчёта 27E3FBB4EFB2C3B4A8344506EA0E9D1C7DA4BEE2881C6B3D6BE4F1265C4495F4 ====
    Спектр



    2 відділення

    01. Автобус
    02. Миєбітлс
    03. Крила
    04. Пісюни
    05. Червона Фіра
    06. 4 танкісти
    07. 220 + Цятка + Полька
    08. Розлабка
    09. Парагвай
    10. Бугай
    11. Bormenzal
    12. Перда
    13. Марш звідси
    EAC log

    Exact Audio Copy V1.0 beta 3 from 29. August 2011

    Отчёт EAC об извлечении, выполненном 17. января 2014, 18:09

    Perkalaba / Ундеропера

    Дисковод: PHILIPS SPD2519T Adapter: 2 ID: 0

    Режим чтения : Достоверность
    Использование точного потока : Да
    Отключение кэша аудио : Да
    Использование указателей C2 : Нет

    Коррекция смещения при чтении : 6
    Способность читать области Lead-in и Lead-out : Нет
    Заполнение пропущенных сэмплов тишиной : Да
    Удаление блоков с тишиной в начале и конце : Нет
    При вычислениях CRC использовались нулевые сэмплы : Да
    Интерфейс : Встроенный Win32-интерфейс для Win NT/2000

    Выходной формат : Пользовательский кодировщик
    Выбранный битрейт : 1024 kBit/s
    Качество : Высокий
    Добавление ID3-тега : Нет
    Утилита сжатия : D:\soft_2\EAC\Exact Audio Copy\\.exe
    Дополнительные параметры : -V -8 -T "Date=%year%" -T "Genre=%genre%" %source%

    TOC извлечённого CD

    Трек | Старт | Длительность | Начальный сектор | Конечный сектор
    ---------------------------------------------------------------------
    1 | 0:00.00 | 5:34.10 | 0 | 25059
    2 | 5:34.10 | 4:50.56 | 25060 | 46865
    3 | 10:24.66 | 2:55.06 | 46866 | 59996
    4 | 13:19.72 | 4:09.22 | 59997 | 78693
    5 | 17:29.19 | 3:53.06 | 78694 | 96174
    6 | 21:22.25 | 3:19.00 | 96175 | 111099
    7 | 24:41.25 | 6:07.19 | 111100 | 138643
    8 | 30:48.44 | 2:48.62 | 138644 | 151305
    9 | 33:37.31 | 3:12.65 | 151306 | 165770
    10 | 36:50.21 | 2:17.04 | 165771 | 176049
    11 | 39:07.25 | 3:50.68 | 176050 | 193367
    12 | 42:58.18 | 2:39.43 | 193368 | 205335
    13 | 45:37.61 | 3:02.70 | 205336 | 219055

    Характеристики диапазона извлечения и сообщения об ошибках

    Выбранный диапазон

    Имя файла N:\Роздачі\Перкалаба\2009 - Ундеропера (2 CD)\2 відділення\Perkalaba - Ундеропера.wav

    Пиковый уровень 97.7 %
    Скорость извлечения 5.6 X
    Качество диапазона 100.0 %
    CRC теста 9492A91D
    CRC копии 9492A91D
    Копирование... OK

    Ошибок не произошло

    AccurateRip: сводка

    Трек 1 отсутствует в базе данных
    Трек 2 отсутствует в базе данных
    Трек 3 отсутствует в базе данных
    Трек 4 отсутствует в базе данных
    Трек 5 отсутствует в базе данных
    Трек 6 отсутствует в базе данных
    Трек 7 отсутствует в базе данных
    Трек 8 отсутствует в базе данных
    Трек 9 отсутствует в базе данных
    Трек 10 отсутствует в базе данных
    Трек 11 отсутствует в базе данных
    Трек 12 отсутствует в базе данных
    Трек 13 отсутствует в базе данных

    Ни одного трека нет в базе AccurateRip

    Конец отчёта

    ==== Контрольная сумма отчёта A7434677A53C46E8EBF091FB010A5B89CD7DEA1CD86A96884394CEED0A5A2FE6 ====
    Спектр



    Виконавці:
      Андрій "Федот" Федотов - вокал
      Володимир "Вовєнджя" Шотурма - цимбали, бек-вокали
      Серьога Шваюк - труба, бек-вокали
      Ігорко Римик - барабани
      Віктор Новожилов - гітара
      Ігор Шургот - бас
      Віктор Степанюк - тромбон
      Олег "Мох" Гнатів - Perkalaba management
      Ромко Рось - featch.
      Гриця Ерде - простір


    Видавець: гурт
    Тривалість: 01:07:44 + 00:48:41
    Мова: українська (4 танкісти - польська)
    Бітрейт: 1018/1062 кб/с
    2011 - Live in Moscow


    01. корова
    02. фігурне катаніє
    03. червона фіра
    04. гулєй
    05. горри!
    06. 220
    07. цятка
    08. полька
    09. льотчик
    10. ау швидка
    11. ау повільна
    12. перда
    13. марш
    14. парагвай
    15. кафель
    EAC log

    Exact Audio Copy V1.0 beta 3 from 29. August 2011

    Отчёт EAC об извлечении, выполненном 17. января 2014, 16:49

    Перкалаба / Live in Moscow

    Дисковод: PHILIPS SPD2519T Adapter: 2 ID: 0

    Режим чтения : Достоверность
    Использование точного потока : Да
    Отключение кэша аудио : Да
    Использование указателей C2 : Нет

    Коррекция смещения при чтении : 6
    Способность читать области Lead-in и Lead-out : Нет
    Заполнение пропущенных сэмплов тишиной : Да
    Удаление блоков с тишиной в начале и конце : Нет
    При вычислениях CRC использовались нулевые сэмплы : Да
    Интерфейс : Встроенный Win32-интерфейс для Win NT/2000

    Выходной формат : Пользовательский кодировщик
    Выбранный битрейт : 1024 kBit/s
    Качество : Высокий
    Добавление ID3-тега : Нет
    Утилита сжатия : D:\soft_2\EAC\Exact Audio Copy\\.exe
    Дополнительные параметры : -V -8 -T "Date=%year%" -T "Genre=%genre%" %source%

    TOC извлечённого CD

    Трек | Старт | Длительность | Начальный сектор | Конечный сектор
    ---------------------------------------------------------------------
    1 | 0:00.00 | 7:22.50 | 0 | 33199
    2 | 7:22.50 | 2:59.18 | 33200 | 46642
    3 | 10:21.68 | 5:17.37 | 46643 | 70454
    4 | 15:39.30 | 3:05.66 | 70455 | 84395
    5 | 18:45.21 | 4:29.31 | 84396 | 104601
    6 | 23:14.52 | 1:21.44 | 104602 | 110720
    7 | 24:36.21 | 3:07.21 | 110721 | 124766
    8 | 27:43.42 | 2:47.23 | 124767 | 137314
    9 | 30:30.65 | 6:36.65 | 137315 | 167079
    10 | 37:07.55 | 4:08.20 | 167080 | 185699
    11 | 41:16.00 | 7:13.05 | 185700 | 218179
    12 | 48:29.05 | 3:41.05 | 218180 | 234759
    13 | 52:10.10 | 3:44.03 | 234760 | 251562
    14 | 55:54.13 | 3:34.35 | 251563 | 267647
    15 | 59:28.48 | 5:44.03 | 267648 | 293450

    Характеристики диапазона извлечения и сообщения об ошибках

    Выбранный диапазон

    Имя файла N:\Роздачі\Перкалаба\2011 - Live in Moscow\Перкалаба - Live in Moscow.wav

    Пиковый уровень 97.7 %
    Скорость извлечения 4.3 X
    Качество диапазона 100.0 %
    CRC теста E195E7A7
    CRC копии E195E7A7
    Копирование... OK

    Ошибок не произошло

    AccurateRip: сводка

    Трек 1 отсутствует в базе данных
    Трек 2 отсутствует в базе данных
    Трек 3 отсутствует в базе данных
    Трек 4 отсутствует в базе данных
    Трек 5 отсутствует в базе данных
    Трек 6 отсутствует в базе данных
    Трек 7 отсутствует в базе данных
    Трек 8 отсутствует в базе данных
    Трек 9 отсутствует в базе данных
    Трек 10 отсутствует в базе данных
    Трек 11 отсутствует в базе данных
    Трек 12 отсутствует в базе данных
    Трек 13 отсутствует в базе данных
    Трек 14 отсутствует в базе данных
    Трек 15 отсутствует в базе данных

    Ни одного трека нет в базе AccurateRip

    Конец отчёта

    ==== Контрольная сумма отчёта A5A94C3049B9039AE1C3049EE10B2F6044A5E922C9034A463514F6D1E4778F07 ====
    Спектр



    Виконавці:
      Андрій "Федот" Федотов - вокал, гітара
      Ярема Стецик - бас, бек-вокал
      Орест Гудима - тромбон, підспіви
      Володимир Шотурма - цимбали, підспіви
      Сергій Шваюк - труба, підспіви


    Видавець: гурт
    Тривалість: 01:05:13
    Мова: українська
    Бітрейт: 951 кб/с
    2011 - ROK'IT KUZЬMOOK


    01. wings I [magic 90's betaintro]
    02. anybody seen my cow [enigmantra collage]
    03. chydroty [hatetosing mix]
    04. peas [electroredone]
    05. clay [hellotoleonardcohen mix]
    06. the mushroom and trout holiday [xaoRa lo-fi mix]
    07. wings II [kentdance mix]
    08. perda [drunkeurotrance mix]
    09. we r the beetles [dirtyindie mix]
    10. lullaby [pushthedarkness mix]
    11. huge hello [bonustrack mix]
    12. 110 (ureleased version)
    EAC log

    Exact Audio Copy V1.0 beta 3 from 29. August 2011

    Отчёт EAC об извлечении, выполненном 16. ноября 2014, 16:10

    Перкалаба / ROK'IT KUZЬMOOK

    Дисковод: PHILIPS SPD2519T Adapter: 2 ID: 0

    Режим чтения : Достоверность
    Использование точного потока : Да
    Отключение кэша аудио : Да
    Использование указателей C2 : Нет

    Коррекция смещения при чтении : 6
    Способность читать области Lead-in и Lead-out : Нет
    Заполнение пропущенных сэмплов тишиной : Да
    Удаление блоков с тишиной в начале и конце : Нет
    При вычислениях CRC использовались нулевые сэмплы : Да
    Интерфейс : Встроенный Win32-интерфейс для Win NT/2000

    Выходной формат : Пользовательский кодировщик
    Выбранный битрейт : 1024 kBit/s
    Качество : Высокий
    Добавление ID3-тега : Нет
    Утилита сжатия : D:\soft_2\EAC\Exact Audio Copy\\.exe
    Дополнительные параметры : -V -8 -T "Date=%year%" -T "Genre=%genre%" %source%

    TOC извлечённого CD

    Трек | Старт | Длительность | Начальный сектор | Конечный сектор
    ---------------------------------------------------------------------
    1 | 0:00.00 | 4:22.16 | 0 | 19665
    2 | 4:22.16 | 4:38.02 | 19666 | 40517
    3 | 9:00.18 | 3:26.33 | 40518 | 56000
    4 | 12:26.51 | 4:53.11 | 56001 | 77986
    5 | 17:19.62 | 3:33.70 | 77987 | 94031
    6 | 20:53.57 | 3:29.20 | 94032 | 109726
    7 | 24:23.02 | 4:12.08 | 109727 | 128634
    8 | 28:35.10 | 3:29.46 | 128635 | 144355
    9 | 32:04.56 | 3:43.67 | 144356 | 161147
    10 | 35:48.48 | 4:16.13 | 161148 | 180360
    11 | 40:04.61 | 5:12.00 | 180361 | 203760
    12 | 45:16.61 | 2:29.68 | 203761 | 215003

    Характеристики диапазона извлечения и сообщения об ошибках

    Выбранный диапазон

    Имя файла N:\Роздачі\Перкалаба\Перкалаба\2011 - ROK'IT KUZЬMOOK\Перкалаба - ROK'IT KUZЬMOOK.wav

    Пиковый уровень 100.0 %
    Скорость извлечения 2.2 X
    Качество диапазона 100.0 %
    CRC теста 6ACE1D43
    CRC копии 6ACE1D43
    Копирование... OK

    Ошибок не произошло

    AccurateRip: сводка

    Трек 1 отсутствует в базе данных
    Трек 2 отсутствует в базе данных
    Трек 3 отсутствует в базе данных
    Трек 4 отсутствует в базе данных
    Трек 5 отсутствует в базе данных
    Трек 6 отсутствует в базе данных
    Трек 7 отсутствует в базе данных
    Трек 8 отсутствует в базе данных
    Трек 9 отсутствует в базе данных
    Трек 10 отсутствует в базе данных
    Трек 11 отсутствует в базе данных
    Трек 12 отсутствует в базе данных

    Ни одного трека нет в базе AccurateRip

    Конец отчёта

    ==== Контрольная сумма отчёта 062221632A8ABC360345D13A25831E5FC6E5BD300B36851E68EC6B2CC6299567 ====
    Спектр



    Виконавці:
      Андрій "Федот" ФЕДОТОВ - ВОКАЛ
      Ярема СТЕЦИК - ТАРЕЛі, БЕК-ВОКАЛ
      Ігор "Моряк" ШУРГОТ - БАС-ГіТАРА
      Володимир "Вовєнджя" ШОТУРМА - ЦИМБАЛИ
      Серьога ШВАЮК - ТРУБА
      Віктор СТЕПАНЮК - ТРОМБОН
      Ігорко РИМИК - БАРАБАНИ
      Олег "Мох" ГНАТіВ - Perkalaba management


    Видавець: гурт
    Тривалість: 00:47:47
    Мова: українська
    Бітрейт: 857 кб/с
    2011 - Дідо


    01. було не любити (in memoriam Кузя)
    02. дідобородатий feat. Eugene Hutz (Gogol Bordello)
    03. дідовліс
    04. дідограє
    05. дідо4
    06. ау
    07. рай feat. НОМ
    08. галочки feat. ДахаБраха
    09. любовь инженера
    10. тікобиви
    11. sun is rising feat. Yuriy Gurzhy (Rotfront)
    12. tikobyvyhotily DERBASTLER Tropical Remix (bonus)
    EAC log

    Exact Audio Copy V1.0 beta 3 from 29. August 2011

    Отчёт EAC об извлечении, выполненном 10. января 2014, 17:24

    Перкалаба / Дідо

    Дисковод: PHILIPS SPD2519T Adapter: 2 ID: 0

    Режим чтения : Достоверность
    Использование точного потока : Да
    Отключение кэша аудио : Да
    Использование указателей C2 : Нет

    Коррекция смещения при чтении : 6
    Способность читать области Lead-in и Lead-out : Нет
    Заполнение пропущенных сэмплов тишиной : Да
    Удаление блоков с тишиной в начале и конце : Нет
    При вычислениях CRC использовались нулевые сэмплы : Да
    Интерфейс : Встроенный Win32-интерфейс для Win NT/2000

    Выходной формат : Пользовательский кодировщик
    Выбранный битрейт : 1024 kBit/s
    Качество : Высокий
    Добавление ID3-тега : Нет
    Утилита сжатия : D:\soft_2\EAC\Exact Audio Copy\\.exe
    Дополнительные параметры : -V -8 -T "Date=%year%" -T "Genre=%genre%" %source%

    TOC извлечённого CD

    Трек | Старт | Длительность | Начальный сектор | Конечный сектор
    ---------------------------------------------------------------------
    1 | 0:00.00 | 4:04.60 | 0 | 18359
    2 | 4:04.60 | 2:17.67 | 18360 | 28701
    3 | 6:22.52 | 5:06.62 | 28702 | 51713
    4 | 11:29.39 | 4:35.33 | 51714 | 72371
    5 | 16:04.72 | 4:09.59 | 72372 | 91105
    6 | 20:14.56 | 4:27.58 | 91106 | 111188
    7 | 24:42.39 | 4:09.41 | 111189 | 129904
    8 | 28:52.05 | 5:41.65 | 129905 | 155544
    9 | 34:33.70 | 6:03.17 | 155545 | 182786
    10 | 40:37.12 | 4:03.17 | 182787 | 201028
    11 | 44:40.29 | 6:18.19 | 201029 | 229397
    12 | 50:58.48 | 4:18.14 | 229398 | 248761

    Характеристики диапазона извлечения и сообщения об ошибках

    Выбранный диапазон

    Имя файла N:\Роздачі\Перкалаба\2011 - Дідо\Перкалаба - Дідо.wav

    Пиковый уровень 97.7 %
    Скорость извлечения 4.2 X
    Качество диапазона 100.0 %
    CRC теста 5E9557C2
    CRC копии 5E9557C2
    Копирование... OK

    Ошибок не произошло

    AccurateRip: сводка

    Трек 1 отсутствует в базе данных
    Трек 2 отсутствует в базе данных
    Трек 3 отсутствует в базе данных
    Трек 4 отсутствует в базе данных
    Трек 5 отсутствует в базе данных
    Трек 6 отсутствует в базе данных
    Трек 7 отсутствует в базе данных
    Трек 8 отсутствует в базе данных
    Трек 9 отсутствует в базе данных
    Трек 10 отсутствует в базе данных
    Трек 11 отсутствует в базе данных
    Трек 12 отсутствует в базе данных

    Ни одного трека нет в базе AccurateRip

    Конец отчёта

    ==== Контрольная сумма отчёта CA7715217466BCFF3AAF78D228564C2AC71943F4EA0A0E2D951C77878F2C8DC0 ====
    Спектр



    Виконавці:
      Андрій "Федот" Федотов - вокал
      Big Master Шотурма – цимбали, вокал
      Володимир "Вовєнджя" Шотурма - цимбали, бек-вокали
      Серьога Шваюк - труба, акордеон, бек-вокали
      Лев "Скрипа" скренткович - барабани
      Вітьок Jr. Новожилов – гітара, програмування
      Алєксандр Сєргєєвіч Грідін – бас, губна гармоніка
      Дядя Вітя Степанюк - тромбон
      Руслана Хазіпова - вокал, джeмбе, танці
      Мох – менеджмент, вокал
      а також Петро Петрович Сказків – дод. цимбали (11)


    Видавець: Familia Perkalaba
    Тривалість: 00:55:17
    Мова: українська
    Бітрейт: 995 кб/с
    2013 - Джєрґа


    01. Льотчик
    02. Гулєй
    03. Тромба
    04. Танкісти
    05. Цятка
    06. Чидро
    07. Горрри
    08. Крила
    09. Груба
    10. Марш!
    11. Soledad (Qarpa cover)
    EAC log

    Exact Audio Copy V1.0 beta 3 from 29. August 2011

    Отчёт EAC об извлечении, выполненном 10. января 2014, 18:12

    Перкалаба / Джєрґа

    Дисковод: PHILIPS SPD2519T Adapter: 2 ID: 0

    Режим чтения : Достоверность
    Использование точного потока : Да
    Отключение кэша аудио : Да
    Использование указателей C2 : Нет

    Коррекция смещения при чтении : 6
    Способность читать области Lead-in и Lead-out : Нет
    Заполнение пропущенных сэмплов тишиной : Да
    Удаление блоков с тишиной в начале и конце : Нет
    При вычислениях CRC использовались нулевые сэмплы : Да
    Интерфейс : Встроенный Win32-интерфейс для Win NT/2000

    Выходной формат : Пользовательский кодировщик
    Выбранный битрейт : 1024 kBit/s
    Качество : Высокий
    Добавление ID3-тега : Нет
    Утилита сжатия : D:\soft_2\EAC\Exact Audio Copy\\.exe
    Дополнительные параметры : -V -8 -T "Date=%year%" -T "Genre=%genre%" %source%

    TOC извлечённого CD

    Трек | Старт | Длительность | Начальный сектор | Конечный сектор
    ---------------------------------------------------------------------
    1 | 0:00.00 | 4:09.22 | 0 | 18696
    2 | 4:09.22 | 3:21.73 | 18697 | 33844
    3 | 7:31.20 | 3:31.36 | 33845 | 49705
    4 | 11:02.56 | 3:46.27 | 49706 | 66682
    5 | 14:49.08 | 3:06.34 | 66683 | 80666
    6 | 17:55.42 | 2:59.45 | 80667 | 94136
    7 | 20:55.12 | 5:19.03 | 94137 | 118064
    8 | 26:14.15 | 4:38.18 | 118065 | 138932
    9 | 30:52.33 | 3:50.02 | 138933 | 156184
    10 | 34:42.35 | 4:04.74 | 156185 | 174558
    11 | 38:47.34 | 5:04.66 | 174559 | 197424

    Характеристики диапазона извлечения и сообщения об ошибках

    Выбранный диапазон

    Имя файла N:\Роздачі\Перкалаба\2013 - Джєрґа\Перкалаба - Джєрґа.wav

    Пиковый уровень 99.8 %
    Скорость извлечения 2.6 X
    Качество диапазона 100.0 %
    CRC теста D62666ED
    CRC копии D62666ED
    Копирование... OK

    Ошибок не произошло

    AccurateRip: сводка

    Трек 1 отсутствует в базе данных
    Трек 2 отсутствует в базе данных
    Трек 3 отсутствует в базе данных
    Трек 4 отсутствует в базе данных
    Трек 5 отсутствует в базе данных
    Трек 6 отсутствует в базе данных
    Трек 7 отсутствует в базе данных
    Трек 8 отсутствует в базе данных
    Трек 9 отсутствует в базе данных
    Трек 10 отсутствует в базе данных
    Трек 11 отсутствует в базе данных

    Ни одного трека нет в базе AccurateRip

    Конец отчёта

    ==== Контрольная сумма отчёта A87F2630A379F86E0FC4ED782349D8E5EBD820D9B9781094C07F482AA837665D ====
    Спектр



    Виконавці:
      Андрій "Федот" Федотов – вокал, тромбон
      Big Master Шотурма – цимбали, вокал
      Серьога Шваюк – труба, акордеон, бек-вокали
      Вітьок Jr. Новожилов – гітара , програмування
      Алєксандр Сєргєєвіч Грідін – бас, губна гармоніка
      Лев "Звєрюга" Скренткович – ударні
      Дядя Вітя Степанюк – тромбон
      Мох – менеджмент, продюсування


    Видавець: Familia Perkalaba
    Тривалість: 00:43:52
    Мова: українська
    Бітрейт: 1027 кб/с


Тривалість: 10:34:33
Мова: українська, польська, німецька
Аудіо-кодек:
Бітрейт: 857-1062 кб/с
Джерело: Ріпи власних CD


Золотий реліз (завантажене не впливає на рейтинг)
 Трекер:    Зареєстрований   

Завантажити / скачати українську музику



відео для новачків



 Зареєстрований:   2018-07-01 17:21
 Розмір:   4.96 GB 
 Оцінка музики:   7.8/10 (Голосів: 4)
   
ssTAss 
Модератор музики


З нами з: 05.07.08
Востаннє: 24.09.18
Повідомлень: 13994

2018-07-10 19:42  
вкажіть видавця (-ів)
gosha.samovar 
VIP


З нами з: 08.09.10
Востаннє: 20.09.18
Повідомлень: 436

2018-07-11 11:57  
ssTAss
О, точно.

Ваш часовий пояс: GMT + 2 Години

Нова тема   Відповісти