Сахара / Sahara (2005) Remux 1080p [Open Matte] 2xUkr/Eng | Sub Eng

Нові коментарі

Нова тема   Відповісти
Останній раз роздавалося Deiv (2018-10-17)
Автор Повідомлення
boroznaya 
Попереджень: 1
Попереджень: 1 


З нами з: 02.11.12
Востаннє: 16.10.18
Повідомлень: 2967

2018-07-01 16:55  
Сахара / Sahara (2005) Remux 1080p [Open Matte] 2xUkr/Eng | Sub Eng

Сахара / Sahara (2005) Remux 1080p [Open Matte] 2xUkr/Eng | Sub Eng

Альтернативний постер



Жанр: бойовик, трилер, комедія, пригодницький, військовий
Країна: Велика Британія, Іспанія, Німеччина, США



Кінокомпанія: Paramount Pictures, Bristol Bay Productions, Baldwin Entertainment Group, J.K. Livin Productions, Desertlands Entertainment, Kanzaman, Babelsberg Film, Moguletta, Sahara Productions, Mace Neufeld Productions
Режисер: Брек Ейснер
Актори: Метью МакКонаґі, Стів Зан, Пенелопа Круз, Вільям Х. Мейсі, Рейн Уілсон, Делрой Ліндо, Ламберт Bілсон, Ленні Джеймс, Роберт Каванах, Джуд Акувудіке, Марк Аспіналл, Ракі Айола, Крістофер Белло, Ніколас Бевені, Емпото Босаж

Сюжет:
1996 рік, Єгипет. Шукач пригод і фахівець Національного підводного морського агентства Дірк Пітт (Метью МакКонаґі), подорожуючи по Нілу, запобігає вбивству симпатичного експерта ООН, медика за професією. Ця посланниця міжнародної організації намагається знайти причину загадкової епідемії, що приводить до того, що тисячі жителів Північної Африки стають божевільними, впадають у канібалізм і вмирають. В історію виявляється вплутаним один мільярдер, якому протистоїть кривавий західно-африканський тиран. Розвиток сюжету приводить Дірка до занедбаної золотоносної шахти в Сахарі, де до знемоги трудяться раби. Там зненацька відкриваються дві більші історичні загадки: змова з метою вбивства Авраама Лінкольна та зникнення знаменитої льотчиці 30-х років XX століття...


Рейтинг MPAA: PG-13 - дітям до 13 років перегляд не бажаний
Вікова категорія: 12+

Тривалість: 02:04:01
Якість: Remux 1080p [Open Matte]
Відео:
кодек:
розмір кадру: 1920x1080
бітрейт: 38,6 Мб/с

Аудіо # 1:
мова: українська
переклад: двоголосий закадровий
кодек: 2.0
бітрейт: 192 кб/с
Інформація про озвучення
Переклад: Лідія Громовенко
Літературний редактор: Олена Ковалевська
Звукорежисер: Віктор Коляда
Режисер: Станіслав Чернілевський
Ролі озвучили: Тетяна Антонова і Олександр Завальський
Фільм перекладено і озвучено на Студії 1+1
Аудіо # 2:
мова: українська
переклад: багатоголосий закадровий
кодек: 5.1
бітрейт: 192 кб/с
Інформація про озвучення
Ролі озвучили: Метью МакКонаґі — Ярослав Чорненький, Стів Зан — Юрій Ребрик, Вільям Мейсі — Олег Стальчук, Анатолій Пашнін і один чи два жіночих голоси.
Фільм перекладено і озвучено на студії Так Треба Продакшн на замовлення телекомпанії ICTV
Аудіо # 3:
мова: англійська
переклад: оригінал
кодек: TrueHD 5.1
бітрейт: 1627 кб/с

Субтитри:
мова: англійська
тип: програмні (м'які)
формат: *.srt
Інформація про файл:
Код:
[b]General[/b]
Unique ID                   : 51450186637768647652308494801099324739 (0x26B4F20CE0B511C2106CF36DDBA47D43)
Complete name               : D:\Фільми\Готові релізи\Sahara (2005) [2xUkr, Eng, sub. Eng] [Open Matte] Remux 1080p [Hurtom] by Zhuk_Mikola.
Format                      :
Format version              : Version 4 / Version 2
File size                   : 35.3 GiB
Duration                    : 2 h 3 min
Overall bit rate mode       : Variable
Overall bit rate            : 40.7 Mb/s
Encoded date                : UTC 2018-07-21 05:35:58
Writing application         : v20.0.0 ('I Am The Sun') 64-bit
Writing library             : libebml v1.3.5 + v1.4.8

[b]Video[/b]
ID                          : 1
Format                      : AVC
Format/Info                 : Advanced Video Codec
Format profile              : [email protected]
Format settings             : CABAC / 4 Ref Frames
Format settings, CABAC      : Yes
Format settings, ReFrames   : 4 frames
Codec ID                    : V_MPEG4/ISO/AVC
Duration                    : 2 h 3 min
Bit rate mode               : Variable
Bit rate                    : 38.6 Mb/s
Maximum bit rate            : 40.0 Mb/s
Width                       : 1 920 pixels
Height                      : 1 080 pixels
Display aspect ratio        : 16:9
Frame rate mode             : Constant
Frame rate                  : 23.976 (24000/1001) FPS
Standard                    : NTSC
Color space                 : YUV
Chroma subsampling          : 4:2:0
Bit depth                   : 8 bits
Scan type                   : Progressive
Bits/(Pixel*Frame)          : 0.777
Stream size                 : 33.4 GiB (95%)
Language                    : Japanese
Default                     : Yes
Forced                      : No
Color range                 : Limited
Color primaries             : BT.709
Transfer characteristics    : BT.709
Matrix coefficients         : BT.709

[b]Audio #1[/b]
ID                          : 2
Format                      : AC-3
Format/Info                 : Audio Coding 3
Codec ID                    : A_AC3
Duration                    : 2 h 3 min
Bit rate mode               : Constant
Bit rate                    : 192 kb/s
Channel(s)                  : 2 channels
Channel positions           : Front: L R
Sampling rate               : 48.0 kHz
Frame rate                  : 31.250 FPS (1536 SPF)
Bit depth                   : 16 bits
Compression mode            : Lossy
Stream size                 : 170 MiB (0%)
Title                       : Двоголосий закадровий, 1+1
Language                    : Ukrainian
Service kind                : Complete Main
Default                     : No
Forced                      : No

[b]Audio #2[/b]
ID                          : 3
Format                      : AC-3
Format/Info                 : Audio Coding 3
Codec ID                    : A_AC3
Duration                    : 2 h 3 min
Bit rate mode               : Constant
Bit rate                    : 192 kb/s
Channel(s)                  : 2 channels
Channel positions           : Front: L R
Sampling rate               : 48.0 kHz
Frame rate                  : 31.250 FPS (1536 SPF)
Bit depth                   : 16 bits
Compression mode            : Lossy
Stream size                 : 170 MiB (0%)
Title                       : Багатоголосий закадровий, ICTV
Language                    : Ukrainian
Service kind                : Complete Main
Default                     : No
Forced                      : No

[b]Audio #3[/b]
ID                          : 4
Format                      : TrueHD
Codec ID                    : A_TRUEHD
Duration                    : 2 h 3 min
Bit rate mode               : Variable
Bit rate                    : 1 627 kb/s
Maximum bit rate            : 3 213 kb/s
Channel(s)                  : 6 channels
Channel positions           : Front: L C R, Side: L R, LFE
Sampling rate               : 48.0 kHz
Frame rate                  : 1 200.000 FPS (40 SPF)
Compression mode            : Lossless
Stream size                 : 1.41 GiB (4%)
Language                    : English
Default                     : No
Forced                      : No

[b]Text[/b]
ID                          : 5
Format                      : UTF-8
Codec ID                    : S_TEXT/UTF8
Codec ID/Info               : UTF-8 Plain Text
Duration                    : 1 h 56 min
Bit rate                    : 48 b/s
Count of elements           : 1204
Stream size                 : 41.4 KiB (0%)
Title                       : Full
Language                    : English
Default                     : No
Forced                      : No
Скріншоти







Спасибі за українські доріжки панам: xslim (1), dvorsky (2) - запис з ТБ; karvai0 - синхронізація, karvai0, WriterMix - українізовані постери, Віктор - інформація про озвучення!

Джерело: &
Особиста оцінка: 8 - мені сподобалося
Над релізом працював -
Не забуваємо подякувати релізеру!


Золотий реліз (завантажене не впливає на рейтинг)
 Трекер:    Зареєстрований   

Завантажити / скачати фільм українською



відео для новачків



 Зареєстрований:   2018-07-29 12:02
 Розмір:   35.25 GB 
 Оцінка фільму:   9.9/10 (Голосів: 9)
   
Інші релізи
   Сахара / Sahara (2005) 720p 2xUkr/Eng | Sub Eng igor911  4 / 0   6.41 GB   2014-11-04 20:53 
   Сахара / Sahara (2005) 2xUkr | Sub Eng karvai0  4 / 0   2.14 GB   2012-04-07 11:33 


за масове видалення скріншотів до перевірених релізів, видано igor911
Graviller123 
Частий відвідувач


З нами з: 26.08.15
Востаннє: 21.09.18
Повідомлень: 41

2018-07-02 22:23  
Гуд, нарешті 16:9. Це кіно дуже круте, пригод тут купа, я дивився 4 рази вже, кожен раз цікаво. Тільки поки в 2.35:1.
А звичайний 1080р з ~6000kbps буде?

boroznaya 
Попереджень: 1
Попереджень: 1 


З нами з: 02.11.12
Востаннє: 16.10.18
Повідомлень: 2967

2018-07-02 22:45  
Graviller123, так, фільм шикарний. Теж кілька разів доводилось глядіти!
Реліз у 1080р не планувався, але, якщо матиму більше часу - спробую!

bot 
робот


З нами з: 30.09.07
Востаннє: 26.05.05
Повідомлень: 19956

2018-07-29 12:02  
Тему перенесено з Анонси релізів до форуму Фільми в HD


boroznaya

boroznaya 
Попереджень: 1
Попереджень: 1 


З нами з: 02.11.12
Востаннє: 16.10.18
Повідомлень: 2967

2018-07-29 14:07  
Фільм "Сахара" на роздачі!
Приємного перегляду, Гуртомівці!

Oleksa9 
VIP


З нами з: 17.05.12
Востаннє: 16.10.18
Повідомлень: 309

2018-08-12 13:00  
Неймовірно, у цій стрічці правильно вимовили англійською Chornobyl, а не на ворожий манер, як у субтитрах - Chernobyl.
MrRyanCooper 
VIP


З нами з: 24.08.12
Востаннє: 16.10.18
Повідомлень: 467

2018-09-22 19:40  
супер, оце кіно, шик, ще й 16:9, тільки погано качає, як скачає, то з друзями глянем на великому телевізорі.
Ваш часовий пояс: GMT + 2 Години

Нова тема   Відповісти