Острів собак / Isle of Dogs (2018) 1080p Ukr/Eng | Sub Ukr/Eng

Нові коментарі

Нова тема   Відповісти
Автор Повідомлення
staf777 
Попереджень: 1
Попереджень: 1 


З нами з: 16.11.16
Востаннє: 16.11.18
Повідомлень: 1746

2018-07-01 15:55  
Острів собак / Isle of Dogs (2018) 1080p Ukr/Eng | Sub Ukr/Eng

Острів собак / Isle of Dogs (2018) 1080p Ukr/Eng | Sub Ukr/Eng
[/center]

Жанр: анімація, драма, комедія, пригодницький
Країна: США, Німеччина



Кінокомпанія: 20th Century Fox, Indian Paintbrush
Режисер: Вес Андерсон
Актори: Браян Кренстон, Кою Ранкін, Едвард Нортон, Білл Мюррей, Джеф Ґолдблум, Грета Гервіг, Френсіс МакДорманд, Скарлет Йоханссон, Гарві Кейтель, Тільда Суінтон та інші

Сюжет:
Події розгортаються у Японії у недалекому майбутньому. Острови перенаселені, тож людям дедалі складніше уживатися поряд. Уряд вирішує, що від хатніх улюбленців потрібно відмовитися, аби лишилось місце людям. Усіх собак вивозять на острів, до країв заповнений сміттям. На велетенському звалищі, без їжі та гідного догляду, живуть тисячі тварин. Дванадцятирічний хлопчик Атарі готовий на все, аби повернути собі найкращого друга – вірного пса. Хлопчина викрадає старезний літак та дістається острова. Тут, у компанії п'ятьох розумних та активних собак, він і шукатиме свого друга.


Тривалість: 01:41:08
Якість: 1080p
Відео:
кодек:
розмір кадру: 1920x804
бітрейт: 8385 кб/с

Аудіо # 1:
мова: українська
переклад: професійний дубльований | студія Postmodern
кодек: 5.1
бітрейт: 448 кб/с

Аудіо # 2:
мова: англійська
переклад: оригінал
кодек: 5.1
бітрейт: 1509 кб/с

Субтитри # 1: (форсовані - лише на неозвучені написи та діалоги)
мова: українська
тип: програмні (м'які)
формат: *.srt

Субтитри # 2: (повні)
мова: українська
тип: пререндерні
формат: pgs

Субтитри # 3-4:
мова: англійська
тип: програмні (м'які)
формат: *.srt
Info

General
Unique ID : 213436993252160101404549912872499973030 (0xA092783B45D63A23FC1B20E04DB68BA6)
Complete name : D:\Мультфільми в HD\Isle of Dogs (2018) 1080p [UKR_ENG] [Hurtom].
Format :
Format version : Version 4 / Version 2
File size : 7.31 GiB
Duration : 1 h 41 min
Overall bit rate : 10.4 Mb/s
Movie name : Isle of Dogs (2018) 1080p [UKR_ENG] [Hurtom]
Encoded date : UTC 2018-09-01 15:56:10
Writing application : v24.0.0 ('Beyond The Pale') 64-bit
Writing library : libebml v1.3.6 + v1.4.9
Cover : Yes
Attachments : cover.jpg

Video
ID : 1
Format : AVC
Format/Info : Advanced Video Codec
Format profile : [email protected]
Format settings : CABAC / 4 Ref Frames
Format settings, CABAC : Yes
Format settings, ReFrames : 4 frames
Codec ID : V_MPEG4/ISO/AVC
Duration : 1 h 41 min
Bit rate : 8 385 kb/s
Width : 1 920 pixels
Height : 804 pixels
Display aspect ratio : 2.40:1
Frame rate mode : Constant
Frame rate : 23.976 (24000/1001) FPS
Color space : YUV
Chroma subsampling : 4:2:0
Bit depth : 8 bits
Scan type : Progressive
Bits/(Pixel*Frame) : 0.227
Stream size : 5.92 GiB (81%)
Writing library : core 155 r2867+74 66b5600 t_mod_Custom_2 [[email protected] X86_64]
Encoding settings : cabac=1 / ref=4 / deblock=1:-3:-3 / analyse=0x3:0x113 / me=umh / subme=10 / psy=1 / fade_compensate=0.00 / psy_rd=0.90:0.10 / mixed_ref=1 / me_range=48 / chroma_me=1 / trellis=2 / 8x8dct=1 / cqm=0 / deadzone=21,11 / fast_pskip=0 / chroma_qp_offset=-2 / threads=18 / lookahead_threads=3 / sliced_threads=0 / nr=0 / decimate=1 / interlaced=0 / bluray_compat=0 / constrained_intra=0 / fgo=0 / bframes=8 / b_pyramid=2 / b_adapt=2 / b_bias=0 / direct=3 / weightb=1 / open_gop=0 / weightp=2 / keyint=250 / keyint_min=23 / scenecut=40 / intra_refresh=0 / rc_lookahead=40 / rc=crf / mbtree=0 / crf=18.0000 / qcomp=0.70 / qpmin=0:0:0 / qpmax=69:69:69 / qpstep=4 / vbv_maxrate=35000 / vbv_bufsize=35000 / crf_max=0.0 / nal_hrd=none / filler=0 / ip_ratio=1.40 / pb_ratio=1.30 / aq=3:0.90 / aq-sensitivity=10.00 / aq-factor=1.00:1.00:1.00 / aq2=0 / aq3=2:[0.50:0.50]:[0.50:0.50]:[0.50:0.50]:[0.50:0.50] / aq3-sensitivity=10.00 / aq3-factor=[1.00:1.00]:[1.00:1.00]:[1.00:1.00] / aq3-boundary=192:64:24
Language : English
Default : Yes
Forced : No
Color range : Limited
Matrix coefficients : BT.709

Audio #1
ID : 2
Format : AC-3
Format/Info : Audio Coding 3
Codec ID : A_AC3
Duration : 1 h 41 min
Bit rate mode : Constant
Bit rate : 448 kb/s
Channel(s) : 6 channels
Channel positions : Front: L C R, Side: L R, LFE
Sampling rate : 48.0 kHz
Frame rate : 31.250 FPS (1536 SPF)
Bit depth : 16 bits
Compression mode : Lossy
Stream size : 324 MiB (4%)
Title : [UA-DUB| студія Postmodern]
Language : Ukrainian
Service kind : Complete Main
Default : Yes
Forced : Yes

Audio #2
ID : 3
Format :
Format/Info : Digital Theater Systems
Codec ID : A_DTS
Duration : 1 h 41 min
Bit rate mode : Constant
Bit rate : 1 509 kb/s
Channel(s) : 6 channels
Channel positions : Front: L C R, Side: L R, LFE
Sampling rate : 48.0 kHz
Frame rate : 93.750 FPS (512 SPF)
Bit depth : 24 bits
Compression mode : Lossy
Stream size : 1.07 GiB (15%)
Title : Original
Language : English
Default : No
Forced : No

Text #1
ID : 4
Format : UTF-8
Codec ID : S_TEXT/UTF8
Codec ID/Info : UTF-8 Plain Text
Duration : 1 h 32 min
Bit rate : 4 b/s
Count of elements : 74
Stream size : 2.81 KiB (0%)
Language : Ukrainian
Default : Yes
Forced : Yes

Text #2
ID : 5
Format : PGS
Muxing mode : zlib
Codec ID : S_HDMV/PGS
Codec ID/Info : Picture based subtitle format used on BDs/HD-DVDs
Duration : 1 h 41 min
Bit rate : 19.5 kb/s
Count of elements : 2172
Stream size : 14.1 MiB (0%)
Language : Ukrainian
Default : No
Forced : No

Text #3
ID : 6
Format : UTF-8
Codec ID : S_TEXT/UTF8
Codec ID/Info : UTF-8 Plain Text
Duration : 1 h 33 min
Bit rate : 56 b/s
Count of elements : 1203
Stream size : 38.8 KiB (0%)
Title : Full
Language : English
Default : No
Forced : No

Text #4
ID : 7
Format : UTF-8
Codec ID : S_TEXT/UTF8
Codec ID/Info : UTF-8 Plain Text
Duration : 1 h 35 min
Bit rate : 63 b/s
Count of elements : 1429
Stream size : 44.4 KiB (0%)
Title : SDH
Language : English
Default : No
Forced : No

Menu
00:00:00.000 : en:00:00:00.000
00:03:36.049 : en:00:03:36.049
00:07:53.181 : en:00:07:53.181
00:13:41.195 : en:00:13:41.195
00:16:39.373 : en:00:16:39.373
00:20:45.035 : en:00:20:45.035
00:26:04.312 : en:00:26:04.312
00:29:27.265 : en:00:29:27.265
00:35:58.573 : en:00:35:58.573
00:40:36.475 : en:00:40:36.475
00:44:46.433 : en:00:44:46.433
00:48:15.100 : en:00:48:15.100
00:52:07.499 : en:00:52:07.499
00:56:06.780 : en:00:56:06.780
00:59:07.085 : en:00:59:07.085
01:03:17.710 : en:01:03:17.710
01:08:45.079 : en:01:08:45.079
01:14:03.230 : en:01:14:03.230
01:16:34.965 : en:01:16:34.965
01:20:46.925 : en:01:20:46.925
01:23:36.219 : en:01:23:36.219
01:30:09.737 : en:01:30:09.737
01:33:02.493 : en:01:33:02.493
01:35:41.235 : en:01:35:41.235
Скріншоти



Дякую пану igor911 за допомогу.
Джерело: &
Особиста оцінка: 0 - не дивився


 Трекер:    Зареєстрований   

Завантажити / скачати мультфільм українською



відео для новачків



 Зареєстрований:   2018-09-01 18:14
 Розмір:   7.31 GB 
 Оцінка мультфільму:   9.3/10 (Голосів: 61)
   
Інші релізи
   Острів собак / Isle of Dogs (2018) AVC Ukr/Eng | Sub Ukr/Eng uafilm.tv  29 / 0   1.53 GB   2018-09-02 09:37 
   Острів собак / Isle of Dogs (2018) 720p Ukr/Eng | Sub Eng 11FrYkT  12 / 1   3.35 GB   2018-09-02 09:28 
   Острів собак / Isle of Dogs (2018) Ukr/Eng | Sub Ukr/Eng igor911  3 / 0   2.27 GB   2018-09-02 08:08 
   Острів собак / Isle of Dogs (2018) 1080p H.265 Ukr/Eng | Sub Ukr/Eng ukr_anonymous  4 / 0   3.64 GB   2018-09-01 22:05 
   Острів собак / Isle of Dogs (2018) Remux 1080p Ukr/Eng | Sub Ukr/Eng staf777  4 / 0   21.67 GB   2018-09-01 18:39 
   Острів собак / Isle of Dogs (2018) igor911  4 / 0   1.46 GB   2018-09-01 17:18 
ukropVadim 
Новенький


З нами з: 19.01.15
Востаннє: 04.11.18
Повідомлень: 13

2018-07-01 17:50  
нарешті ,таки чекав довго !
AnnaBogdan 
Свій


З нами з: 16.10.16
Востаннє: 13.11.18
Повідомлень: 86

2018-07-03 16:35  
Слів немає, одні емоції, лише позитивні. 10/10 однозначно!
maleficmax 
Свій


З нами з: 18.04.12
Востаннє: 29.10.18
Повідомлень: 74

2018-07-03 22:31  
Якої якості звук?
igor911 
Відео Гуртом
Відео Гуртом


З нами з: 18.01.08
Востаннє: 16.11.18
Повідомлень: 11400

2018-07-03 22:32  
maleficmax, стерео.
Strider477 
Частий відвідувач


З нами з: 29.10.11
Востаннє: 13.11.18
Повідомлень: 41

2018-07-04 20:07  
Суперовий і незвичайний мультфільм. Дякую за роздачу!
jeans2882 
Свій


З нами з: 05.06.12
Востаннє: 11.11.18
Повідомлень: 84

2018-07-06 17:08  
На любителя.
staf777 
Попереджень: 1
Попереджень: 1 


З нами з: 16.11.16
Востаннє: 16.11.18
Повідомлень: 1746

2018-07-09 23:02  
Оновив відео на 1080p

santaklava 
Частий відвідувач


З нами з: 12.10.09
Востаннє: 15.11.18
Повідомлень: 42

2018-07-10 18:26  
Дякую мультфільм дуже гарний і цікавий.
maleficmax 
Свій


З нами з: 18.04.12
Востаннє: 29.10.18
Повідомлень: 74

2018-07-12 19:39  
igor911 написано:
maleficmax, стерео.

Це жарт був, чи як?
Line-in чи офіційний?

Nexus28 
Новенький


З нами з: 28.08.10
Востаннє: 15.11.18
Повідомлень: 10

2018-08-01 16:05  
Дякую! Ще би якість звуку покращити, було би суперово.
yourgrin 
Новенький


З нами з: 05.03.14
Востаннє: 15.11.18
Повідомлень: 6

2018-08-04 20:55  
Шедевр!
shroud 
Частий відвідувач


З нами з: 06.07.11
Востаннє: 07.11.18
Повідомлень: 32

2018-08-08 20:22  
Неочікувано привабливий мульт.
Все гарно, ще й саундтрек надодачу.
Моя 10-ка. )

igor911 
Відео Гуртом
Відео Гуртом


З нами з: 18.01.08
Востаннє: 16.11.18
Повідомлень: 11400

2018-09-01 18:31  
Оновлено 5.1 звуком та повними сабами з блурея, покращено форс.саби на написи.
Ваш часовий пояс: GMT + 2 Години

Нова тема   Відповісти