Тихе місце / A Quiet Place (2018) Remux 1080p Ukr/Eng | Sub Ukr/Eng

Нові коментарі

Нова тема   Відповісти
Автор Повідомлення
staf777 
Попереджень: 1
Попереджень: 1 


З нами з: 16.11.16
Востаннє: 15.12.18
Повідомлень: 1916

2018-07-01 14:47  
Тихе місце / A Quiet Place (2018) Remux 1080p Ukr/Eng | Sub Ukr/Eng

Тихе місце / A Quiet Place (2018) Remux 1080p Ukr/Eng | Sub Ukr/Eng
«Якщо тебе почують - тебе вполюють»

Жанр: драма, жахи, трилер
Країна: США



Кінокомпанія: Platinum Dunes, Sunday Night
Режисер: Джон Красінські
Актори: Емілі Блант, Джон Красінські, Ноа Джуп, Міллісент Сіммондс, Леон Рассом, Кейд Вудворд, Доріс МакКарті

Сюжет:
Життя сім’ї фермерів було повною ідилією, допоки вони не стали мішенню для потойбічного зла. В безжальній грі з темрявою є одне правило – не видавати себе жодним звуком. Щойно тебе почують – ти загинеш.


Тривалість: 01:30:14
Якість: Remux 1080p
Відео:
кодек:
розмір кадру: 1920x1080
бітрейт: 24,3 Mб/с

Аудіо # 1:
мова: українська
переклад: професійний дубльований
кодек: 2.0
бітрейт: 192 кб/с

Аудіо # 2:
мова: англійська
переклад: оригінал
кодек: TrueHD+Atmos 7.1
бітрейт: 3890 кб/с

Субтитри # 1:
мова: українська
тип: програмні (м'які)
формат: *.srt

Субтитри # 2:
мова: англійська
тип: програмні (м'які)
формат: *.srt
Info
General
Unique ID : 231765546167614659149626399271804764201 (0xAE5C6BA8C7FE826B2E16415824908029)
Complete name : G:\Жахи\A Quiet Place (2018) Remux 1080p [UKR_ENG] [Hurtom].
Format :
Format version : Version 4 / Version 2
File size : 17.9 GiB
Duration : 1 h 30 min
Overall bit rate mode : Variable
Overall bit rate : 28.5 Mb/s
Movie name : A Quiet Place (2018) Remux 1080p [UKR_ENG] [Hurtom]
Encoded date : UTC 2018-07-12 19:47:36
Writing application : v24.0.0 ('Beyond The Pale') 64-bit
Writing library : libebml v1.3.6 + v1.4.9
Cover : Yes
Attachments : cover

Video
ID : 1
Format : AVC
Format/Info : Advanced Video Codec
Format profile : [email protected]
Format settings : CABAC / 4 Ref Frames
Format settings, CABAC : Yes
Format settings, ReFrames : 4 frames
Codec ID : V_MPEG4/ISO/AVC
Duration : 1 h 30 min
Bit rate mode : Variable
Bit rate : 24.3 Mb/s
Maximum bit rate : 27.0 Mb/s
Width : 1 920 pixels
Height : 1 080 pixels
Display aspect ratio : 16:9
Frame rate mode : Constant
Frame rate : 23.976 (24000/1001) FPS
Color space : YUV
Chroma subsampling : 4:2:0
Bit depth : 8 bits
Scan type : Progressive
Bits/(Pixel*Frame) : 0.489
Stream size : 15.3 GiB (85%)
Language : English
Default : Yes
Forced : No

Audio #1
ID : 2
Format : AC-3
Format/Info : Audio Coding 3
Codec ID : A_AC3
Duration : 1 h 30 min
Bit rate mode : Constant
Bit rate : 192 kb/s
Channel(s) : 2 channels
Channel positions : Front: L R
Sampling rate : 48.0 kHz
Frame rate : 31.250 FPS (1536 SPF)
Bit depth : 16 bits
Compression mode : Lossy
Stream size : 124 MiB (1%)
Title : 2.0 @ 192 kbps
Language : Ukrainian
Service kind : Complete Main
Default : Yes
Forced : Yes

Audio #2
ID : 3
Format : TrueHD
Format profile : TrueHD+Atmos / TrueHD
Codec ID : A_TRUEHD
Duration : 1 h 30 min
Bit rate mode : Variable
Bit rate : 3 890 kb/s
Maximum bit rate : 8 064 kb/s
Channel(s) : Object Based / 8 channels
Channel positions : Object Based / Front: L C R, Side: L R, Back: L R, LFE
Sampling rate : / 48.0 kHz
Frame rate : 1 200.000 FPS (40 SPF)
Compression mode : Lossless
Stream size : 2.45 GiB (14%)
Title : Original
Language : English
Default : No
Forced : No

Text #1
ID : 4
Format : UTF-8
Codec ID : S_TEXT/UTF8
Codec ID/Info : UTF-8 Plain Text
Duration : 1 h 19 min
Bit rate : 9 b/s
Count of elements : 138
Stream size : 5.29 KiB (0%)
Title : Forced
Language : Ukrainian
Default : Yes
Forced : Yes

Text #2
ID : 5
Format : UTF-8
Codec ID : S_TEXT/UTF8
Codec ID/Info : UTF-8 Plain Text
Duration : 1 h 22 min
Bit rate : 6 b/s
Count of elements : 235
Stream size : 4.07 KiB (0%)
Title : SDH
Language : English
Default : No
Forced : No

Menu
00:00:00.000 : en:00:00:00.000
00:10:19.160 : en:00:10:19.160
00:14:38.044 : en:00:14:38.044
00:21:52.937 : en:00:21:52.937
00:25:09.717 : en:00:25:09.717
00:31:05.197 : en:00:31:05.197
00:36:23.431 : en:00:36:23.431
00:43:47.333 : en:00:43:47.333
00:47:42.735 : en:00:47:42.735
00:53:48.225 : en:00:53:48.225
01:00:31.461 : en:01:00:31.461
01:05:55.410 : en:01:05:55.410
01:10:57.879 : en:01:10:57.879
01:15:29.150 : en:01:15:29.150
01:23:47.314 : en:01:23:47.314
Скріншоти




Джерело: &
Особиста оцінка: 0 - не дивився


Золотий реліз (завантажене не впливає на рейтинг)
 Трекер:    Зареєстрований   

Завантажити / скачати фільм українською



відео для новачків



 Зареєстрований:   2018-07-12 22:18
 Розмір:   17.94 GB 
 Оцінка фільму:   7.6/10 (Голосів: 16)
   
Інші релізи
Wowatorrent 
Поважний учасник


З нами з: 23.03.16
Востаннє: 15.12.18
Повідомлень: 151

2018-07-01 17:54  
На мову жестів є озвучка, чи субтитри?
Mariscia 
Поважний учасник


З нами з: 14.01.16
Востаннє: 13.12.18
Повідомлень: 176

2018-07-01 21:22  
У всіх субтитри - англійська(( Але ж тут сама суть у тому, що вони мають бути українські, бо там того дублювання цілих три діалоги. Хочу батькам показати, тому це так важливо для мене.
Electroz 
Відео Гуртом - підтримка та поширення
Відео Гуртом - підтримка та поширення


З нами з: 18.09.14
Востаннє: 15.12.18
Повідомлень: 3179

2018-07-01 21:50  
Mariscia
Вже декілька днів є реліз з українськими субтитрами.

Додано через 11 секунд:

https://toloka.to/t92858

Mariscia 
Поважний учасник


З нами з: 14.01.16
Востаннє: 13.12.18
Повідомлень: 176

2018-07-02 00:40  
Electroz
То власний переклад, а не оригінальний, який у кіно ми дивилися.

bot 
робот


З нами з: 30.09.07
Востаннє: 26.05.05
Повідомлень: 20345

2018-07-12 22:17  
Тему перенесено з Анонси релізів до форуму Фільми в HD


staf777

ВАВУНЯ 
Поважний учасник


З нами з: 30.06.15
Востаннє: 14.12.18
Повідомлень: 231

2018-07-18 14:32  
чи буде кращий звук?
дякую.

igor911 
Відео Гуртом
Відео Гуртом


З нами з: 18.01.08
Востаннє: 15.12.18
Повідомлень: 11613

2018-07-18 15:21  
ВАВУНЯ написано:
чи буде кращий звук?

https://toloka.to/t78349 пишуть, що не буде
Цитата:
A Quiet Place / Тихе місце (2018)
BluRay - 0%;
DVD - 0%;

ВАВУНЯ 
Поважний учасник


З нами з: 30.06.15
Востаннє: 14.12.18
Повідомлень: 231

2018-07-18 15:50  
igor911, шкода. дякую. завантажую.

Electroz 
Відео Гуртом - підтримка та поширення
Відео Гуртом - підтримка та поширення


З нами з: 18.09.14
Востаннє: 15.12.18
Повідомлень: 3179

2018-07-18 17:14  
igor911
Там пару діалогів, можна і виділити голоси.

Свирид Опанасович 
Новенький


З нами з: 30.01.17
Востаннє: 13.12.18
Повідомлень: 4

2018-07-26 20:29  
Я б там не вижив, адже храплю))
А фільм відверто слабенький

Siegfried 
Поважний учасник


З нами з: 01.11.11
Востаннє: 14.12.18
Повідомлень: 202

2018-07-30 09:08  
Могло бути значно краще.
Багато спірних або відверто тупих моентів.
На раз.
5/10

Ваш часовий пояс: GMT + 2 Години

Нова тема   Відповісти