Відьмина гора / Race to Witch Mountain (2009) 1080p Ukr/Eng | Sub Ukr/Eng

Нові коментарі

Нова тема   Відповісти
Останній раз роздавалося staf777 (2019-04-21)
Автор Повідомлення
staf777 
Відео Гуртом - підтримка та поширення
Відео Гуртом - підтримка та поширення


З нами з: 16.11.16
Востаннє: 21.04.19
Повідомлень: 2275

2018-07-01 14:03  
Відьмина гора / Race to Witch Mountain (2009) 1080p Ukr/Eng | Sub Ukr/Eng

Відьмина гора / Race to Witch Mountain (2009) 1080p Ukr/Eng | Sub Ukr/Eng
Оригінальна обкладинка

Відьмина гора / Race to Witch Mountain (2009) 1080p Ukr/Eng | Sub Ukr/Eng
Жанр: сімейний, пригодницький, екшн, фантастика, трилер
Країна: США



Кінокомпанія: Walt Disney Pictures, Gunn Films
Режисер: Енді Фікмен
Актори: Двейн Джонсон, АннаCофія Робб, Александр Людвіг, Карла Гуджино, Кіаран Гіндс, Том Еверетт Скотт, Кріс Маркетт, Біллі Браун, Геррі Маршалл, Кім Річардс

Сюжет:
По всьому світі люди щодня сідають у таксі, щоб дістатися з одного місця в інше - це звичне явище повсякденного життя. Але в новому фантастичному трилері від студії Walt Disney «Відьмина гора» (Race to Witch Mountain) це повсякденне явище перетворюється на справді космічну ситуацію, яка залучає таксиста та його двох незвичайних пасажирів у неймовірні пригоди. Прем’єра картини в Україні - 23 квітня.

У житті Джека Бруно, таксиста-невдахи з Лас-Вегаса, все пішло шкереберть тієї ж миті, коли до нього у таксі, тікаючи від погоні, потрапили Тоні та Тіа. Тепер не тільки дітям, а й йому потрібна допомога, тому що його пасажири – незвичайні дітлахи, які володіють паранормальними здібностями. До того ж, світу загрожує неминуча загибель, і водій змушений розшукати спеціаліста з НЛО та врятувати дітей від переслідування, щоб вони врятували світ!


Тривалість: 01:38:17
Якість: 1080p
Відео:
кодек:
розмір кадру: 1920x800
бітрейт: 10.0 Mб/с

Аудіо # 1:
мова: українська
переклад: професійний дубльований
кодек: 5.1
бітрейт: 640 кб/с

Аудіо # 2:
мова: англійська
переклад: оригінал
кодек: 5.1
бітрейт: 1509 кб/с

Субтитри #1-2:
мова: українська
тип: програмні (м'які)
формат: *.srt

Субтитри #3-4:
мова: англійська
тип: програмні (м'які)
формат: *.srt
Info
General
Unique ID : 180865022594024179511398069458188586490 (0x8811561724361C7BA6D115CADDBF4DFA)
Complete name : G:\Майбутні релізи\Race to Witch Mountain (2009) 1080p[Ukr][Eng][Hurtom].
Format :
Format version : Version 4 / Version 2
File size : 8.37 GiB
Duration : 1 h 38 min
Overall bit rate : 12.2 Mb/s
Movie name : Race to Witch Mountain (2009) 1080p[Ukr][Eng][Hurtom]
Encoded date : UTC 2018-07-01 09:54:10
Writing application : v9.8.0 ('Kuglblids') 64bit
Writing library : libebml v1.3.4 + v1.4.5
Cover : Yes
Attachments : cover.jpg

Video
ID : 1
Format : AVC
Format/Info : Advanced Video Codec
Format profile : [email protected]
Format settings : CABAC / 5 Ref Frames
Format settings, CABAC : Yes
Format settings, ReFrames : 5 frames
Codec ID : V_MPEG4/ISO/AVC
Duration : 1 h 38 min
Bit rate : 10.0 Mb/s
Width : 1 920 pixels
Height : 800 pixels
Display aspect ratio : 2.40:1
Frame rate mode : Constant
Frame rate : 23.976 (24000/1001) FPS
Color space : YUV
Chroma subsampling : 4:2:0
Bit depth : 8 bits
Scan type : Progressive
Bits/(Pixel*Frame) : 0.272
Stream size : 6.89 GiB (82%)
Writing library : core 67 r1173 f6d3166
Encoding settings : cabac=1 / ref=5 / deblock=1:0:0 / analyse=0x3:0x133 / me=umh / subme=7 / psy_rd=1.0:0.0 / mixed_ref=1 / me_range=16 / chroma_me=1 / trellis=1 / 8x8dct=1 / cqm=0 / deadzone=21,11 / chroma_qp_offset=-2 / threads=12 / nr=0 / decimate=1 / mbaff=0 / bframes=3 / b_pyramid=1 / b_adapt=1 / b_bias=0 / direct=1 / wpredb=1 / keyint=250 / keyint_min=25 / scenecut=40 / rc=2pass / bitrate=10033 / ratetol=1.0 / qcomp=0.60 / qpmin=10 / qpmax=51 / qpstep=4 / cplxblur=20.0 / qblur=0.5 / ip_ratio=1.40 / pb_ratio=1.30 / aq=1:1.00
Language : English
Default : Yes
Forced : No

Audio #1
ID : 2
Format : AC-3
Format/Info : Audio Coding 3
Codec ID : A_AC3
Duration : 1 h 38 min
Bit rate mode : Constant
Bit rate : 640 kb/s
Channel(s) : 6 channels
Channel positions : Front: L C R, Side: L R, LFE
Sampling rate : 48.0 kHz
Frame rate : 31.250 FPS (1536 SPF)
Bit depth : 16 bits
Compression mode : Lossy
Stream size : 450 MiB (5%)
Title : AC3_5.1_640kbps
Language : Ukrainian
Service kind : Complete Main
Default : Yes
Forced : Yes

Audio #2
ID : 3
Format :
Format/Info : Digital Theater Systems
Codec ID : A_DTS
Duration : 1 h 38 min
Bit rate mode : Constant
Bit rate : 1 509 kb/s
Channel(s) : 6 channels
Channel positions : Front: L C R, Side: L R, LFE
Sampling rate : 48.0 kHz
Frame rate : 93.750 FPS (512 SPF)
Bit depth : 24 bits
Compression mode : Lossy
Stream size : 1.04 GiB (12%)
Title : DTS_5.1_1536kbps
Language : English
Default : No
Forced : No

Text #1
ID : 4
Format : UTF-8
Codec ID : S_TEXT/UTF8
Codec ID/Info : UTF-8 Plain Text
Duration : 1 h 34 min
Bit rate : 83 b/s
Count of elements : 1055
Stream size : 58.2 KiB (0%)
Language : Ukrainian
Default : No
Forced : No

Text #2
ID : 5
Format : UTF-8
Codec ID : S_TEXT/UTF8
Codec ID/Info : UTF-8 Plain Text
Duration : 1 h 34 min
Bit rate : 2 b/s
Count of elements : 29
Stream size : 1.42 KiB (0%)
Title : (надписи)
Language : Ukrainian
Default : Yes
Forced : Yes

Text #3
ID : 6
Format : UTF-8
Codec ID : S_TEXT/UTF8
Codec ID/Info : UTF-8 Plain Text
Duration : 1 h 30 min
Bit rate : 58 b/s
Count of elements : 1040
Stream size : 38.8 KiB (0%)
Language : English
Default : No
Forced : No
Скріншоти




Джерело: &
Особиста оцінка: 0 - не дивився


 Трекер:    Зареєстрований   

Завантажити / скачати фільм українською



відео для новачків



 Зареєстрований:   2018-07-01 14:04
 Розмір:   8.37 GB 
 Оцінка фільму:   8.3/10 (Голосів: 12)
   
bot 
робот


З нами з: 30.09.07
Востаннє: 26.05.05
Повідомлень: 21221

2018-07-01 14:04  
Тему перенесено з Анонси релізів до форуму Фільми в HD


staf777

11FrYkT 
Модератор відео


З нами з: 20.02.11
Востаннє: 20.04.19
Повідомлень: 5794

2018-07-02 12:21  
staf777 , в мережі є і кращі ріпи
hetzendorf 
Попереджень: 1
Попереджень: 1 


З нами з: 23.07.15
Востаннє: 21.04.19
Повідомлень: 2041

2019-02-10 02:35  
Мені й так рідко який фільм жанру наукової фантастики подобається, що ж поробиш — бо то казочки для бородатих хлопчиків — але цей зовсім розчарував. Першу половину тупий негр тупив, у другій — його раптово підмінили, прозрів, усе з першого разу вдавалося. Діточки-прибульці з такими-то суперздібностями могли й самі упоратися, мінімально задіючи землян як провідників. Єдине, що цінного у фільмі — це чарівна й незрівнянна Анназофія Робб, хоч і далеко не найкраща її роль, але тим не менше. Шкода, нових фільмів із нею не озвучують >_<
3/10

EvGaS 
Попереджень: 1
Попереджень: 1 


З нами з: 27.02.12
Востаннє: 20.04.19
Повідомлень: 5673

2019-02-10 11:15  
hetzendorf написано:
Єдине, що цінного у фільмі — це чарівна й незрівнянна Анназофія Робб, хоч і далеко не найкраща її роль, але тим не менше. Шкода, нових фільмів із нею не озвучують >_<



hetzendorf,
Згоден, що кіно відстій. Та й з відстою можна посміятися, воно розважальне (і на серйозну фантастику дійсно не тягне). Та все ж… варто ж хоч якось бути обережнішим з лоліконщиною. А якщо твоя вайфу взнає що їй зрадив? Ще диви вуха відкрутить.

Цитата:
Діточки-прибульці з такими-то суперздібностями могли й самі упоратися, мінімально задіючи землян як провідників.

Бо з тубільцями завжди веселіш. Wide grin

Додано через 3 хвилини 16 секунд:

hetzendorf, я тебе ненавиджу. Тепер через тебе мені його передивитись свербе. )))

hetzendorf 
Попереджень: 1
Попереджень: 1 


З нами з: 23.07.15
Востаннє: 21.04.19
Повідомлень: 2041

2019-02-11 02:35  
EvGaS написано:
Та все ж… варто ж хоч якось бути обережнішим з лоліконщиною.

Того бідопіра юна прибулиця своїм телекінезом у момент скрутить, точнісінько як оту кацапку Ольгу у «Суспензії» ^_^ Так і сконає він у нескінченній автофеляції ^__^
EvGaS написано:
А якщо твоя вайфу взнає що їй зрадив? Ще диви вуха відкрутить.
Ну, аби лишень закритого простору не створила раптово!

EvGaS написано:
я тебе ненавиджу. Тепер через тебе мені його передивитись свербе

Ото щоби знав, як на Богиню гнати, старий педофіле лоліконщику! ^__^
EvGaS написано:
Бо з тубільцями завжди веселіш.

Іще ж мир, дружба, кукурудза! Як же ж без цього?

EvGaS 
Попереджень: 1
Попереджень: 1 


З нами з: 27.02.12
Востаннє: 20.04.19
Повідомлень: 5673

2019-02-11 07:42  
hetzendorf написано:
Ото щоби знав, як на Богиню гнати, старий [sпедофіле[/s] лоліконщику! ^__^


Ну так, лолікон, еге ж))

hetzendorf написано:
Того бідопіра юна прибулиця своїм телекінезом у момент скрутить

У мить.
Та й ще: а може їй сподобається © (вони ж косміти, мо взагалі гермафродити)
Тим більш, в кіно не має того, які вони справжні на вигляд. Може вони взагалі як восьминоги.

Ваш часовий пояс: GMT + 2 Години

Нова тема   Відповісти