Траса 60: Дорожні пригоди / Interstate 60: Episodes of the Road (2002) Upscale 720p Ukr/Eng | Sub Eng

Нові коментарі

Нова тема   Відповісти
Автор Повідомлення
Anonymous 







2018-07-01 13:06  
Траса 60: Дорожні пригоди / Interstate 60: Episodes of the Road (2002) Upscale 720p Ukr/Eng | Sub Eng

Траса 60: Дорожні пригоди / Interstate 60: Episodes of the Road (2002) Upscale 720p Ukr/Eng | Sub Eng


Жанр: драма, фантастика, фентезі, пригодницький, комедія, детектив
Країна: Канада, США



Кінокомпанія: Fireworks Entertainment
Режисер: Боб Ґейл / Bob Gale
Актори: Джеймс Марсден, Гарі Олдмен, Крістофер Ллойд, Емі Старт, Курт Рассел та інші

Сюжет:
У легендах і міфах є персонажі, головне завдання яких - виконувати бажання. У арабів - це джіни, у ірландців - лепрекони, у китайців - дракони, у європейців - феї і лісові духи. А в Америці є хтось О. Б. Грант - досить дивна і забавна людина, яка теж може виконати будь-яке Ваше бажання. Але будьте обережні - він бешкетник! Ось його-то і зустрічає одного разу Ніл Олівер.
Дивакуватий Грант запрошує Ніа зробити поїздку по таємничій автостраді 60, якої немає ні на одній карті США. І Ніл кидає все і пускається в найнеймовірнішу і ризиковану подорож в своєму житті, вирішивши, хай там що розшукати незнайомку з своїх снів.

Що буде, якщо одного дня ти зустрінеш чоловіка, який може виконувати будь-які людські бажання? І він поведе тебе у подорож за твоєю мрією?.. Докладно переповідати сюжет цієї стрічки не варто, щоб не псувати враження. Достатньо сказати, що це філософське фантазійне роад-муві набирає оберти щохвилини, пропонуючи розвагу для ока і дещо для розуму. Олдмен, як завжди, надзвичайний.


Тривалість: 01:52:17
Якість: Upscale 720p
Відео:
кодек:
розмір кадру: 1280х720
бітрейт: 11,2 Мб/с

Аудіо # 1:
мова: українська
переклад: багатоголосий закадровий |
кодек: 2.0
бітрейт: 192 кб/с

Аудіо # 2:
мова: англійська
переклад: оригінал
кодек: 5.1
бітрейт: 448 кб/с

Субтитри:
мова: англійська
тип: програмні (м'які)
формат: *.srt
Info
General
Unique ID : 208776358532621211044340729643484134309 (0x9D10DD32E48423B28D97A8ACA4613BA5)
Format :
Format version : Version 4 / Version 2
File size : 9.45 GiB
Duration : 1 h 52 min
Overall bit rate : 12.1 Mb/s
Encoded date : UTC 2018-07-01 09:49:49
Writing application : v6.1.0 ('Old Devil') built on Mar 4 2013 09:10:42
Writing library : libebml v1.3.0 + v1.4.0

Video
ID : 1
Format : AVC
Format/Info : Advanced Video Codec
Format profile : [email protected]
Format settings, CABAC : Yes
Format settings, ReFrames : 9 frames
Codec ID : V_MPEG4/ISO/AVC
Duration : 1 h 52 min
Bit rate : 11.2 Mb/s
Width : 1 280 pixels
Height : 720 pixels
Display aspect ratio : 16:9
Frame rate mode : Constant
Frame rate : 25.000 FPS
Color space : YUV
Chroma subsampling : 4:2:0
Bit depth : 8 bits
Scan type : Progressive
Bits/(Pixel*Frame) : 0.485
Stream size : 8.76 GiB (93%)
Writing library : core 148 r2744kMod b97ae06
Encoding settings : cabac=1 / ref=9 / deblock=1:-2:-1 / analyse=0x3:0x113 / me=umh / subme=10 / psy=1 / fade_compensate=0.00 / psy_rd=0.95:0.05 / mixed_ref=1 / me_range=40 / chroma_me=1 / trellis=2 / 8x8dct=1 / cqm=0 / deadzone=21,11 / fast_pskip=1 / chroma_qp_offset=-3 / threads=12 / lookahead_threads=2 / sliced_threads=0 / nr=0 / decimate=1 / interlaced=0 / bluray_compat=0 / constrained_intra=0 / bframes=9 / b_pyramid=2 / b_adapt=2 / b_bias=0 / direct=1 / weightb=1 / open_gop=0 / weightp=2 / keyint=250 / keyint_min=25 / scenecut=40 / intra_refresh=0 / rc_lookahead=40 / rc=crf / mbtree=0 / crf=18.0000 / qcomp=0.63 / qpmin=0 / qpmax=39 / qpstep=4 / vbv_maxrate=50000 / vbv_bufsize=62500 / crf_max=0.0 / nal_hrd=none / filler=0 / ip_ratio=1.40 / pb_ratio=1.30 / aq=3:0.70
Language : English
Default : Yes
Forced : No
Color range : Limited
Color primaries : BT.709
Transfer characteristics : BT.709
Matrix coefficients : BT.709

Audio #1
ID : 2
Format : AC-3
Format/Info : Audio Coding 3
Format settings, Endianness : Big
Codec ID : A_AC3
Duration : 1 h 52 min
Bit rate mode : Constant
Bit rate : 192 kb/s
Channel(s) : 2 channels
Channel positions : Front: L R
Sampling rate : 48.0 kHz
Frame rate : 31.250 FPS (1536 spf)
Bit depth : 16 bits
Compression mode : Lossy
Stream size : 154 MiB (2%)
Title : UKR (Kino, K1)
Language : Ukrainian
Service kind : Complete Main
Default : Yes
Forced : Yes

Audio #2
ID : 3
Format : AC-3
Format/Info : Audio Coding 3
Format settings, Endianness : Big
Codec ID : A_AC3
Duration : 1 h 52 min
Bit rate mode : Constant
Bit rate : 448 kb/s
Channel(s) : 6 channels
Channel positions : Front: L C R, Side: L R, LFE
Sampling rate : 48.0 kHz
Frame rate : 31.250 FPS (1536 spf)
Bit depth : 16 bits
Compression mode : Lossy
Stream size : 360 MiB (4%)
Language : English
Service kind : Complete Main
Default : No
Forced : No

Text
ID : 4
Format : UTF-8
Codec ID : S_TEXT/UTF8
Codec ID/Info : UTF-8 Plain Text
Language : English
Default : No
Forced : No

Menu
00:00:00.000 : en:Chapter 1
00:08:53.680 : en:Chapter 2
00:19:00.400 : en:Chapter 3
00:29:04.680 : en:Chapter 4
00:38:24.000 : en:Chapter 5
00:48:54.000 : en:Chapter 6
01:06:39.160 : en:Chapter 7
01:09:50.720 : en:Chapter 8
01:19:58.800 : en:Chapter 9
01:28:08.360 : en:Chapter 10
01:39:46.400 : en:Chapter 11
01:56:00.000 : en:Chapter 12
Скріншоти







Подяка пану Romario_O за сиру доріжку а також п. MAKAPOHHIK за синхронізацію її під !
Подяка пану damyen за постер!
Особиста подяка пану denixx за надану матеріальну допомогу на підтримку цього і майбутніх релізів.
Джерело:


Срібний реліз (на рейтинг впливає 50% завантаженого)
 Трекер:    Зареєстрований   

Завантажити / скачати фільм українською



відео для новачків



 Зареєстрований:   2018-07-01 13:06
 Розмір:   9.45 GB 
 Оцінка фільму:   9.9/10 (Голосів: 36)
   
mutomba 
VIP


З нами з: 20.10.13
Востаннє: 18.09.20
Повідомлень: 361

2018-07-02 13:26  
Це реально 720p?

Питаю бо нещодавно намагався знайти таку якість і все в мережі було просто апскейлом 480p до 720p.
пс: за реліз дякую! Кіно - шедевр! Happy

Anonymous 







2018-07-02 16:12  
mutomba написано:
Це реально 720p?

проглядаючи картинку на скрінах і в динамічному відео я можу скахати що це явно не апскей з 480п. Досить якісна картинка. Вибір лишається за Вами. Качати чи ні справа кожного окремо.

yussuf 
Свій


З нами з: 08.06.09
Востаннє: 17.09.20
Повідомлень: 77

2018-07-02 18:47  
Хіба у "Кіно" і К1 були не різні озвучки?
Anonymous 







2018-07-02 18:55  
yussuf
ні

krigg070 
Відео Гуртом - фільмокрай
Відео Гуртом - фільмокрай


З нами з: 29.10.14
Востаннє: 19.09.20
Повідомлень: 1772

2018-07-02 21:21  
Anonymous написано:
ні

Насправді відрізняються. Тим більше К1 цього разу показав із стерео звуком. Озвучено ТТП.

Anonymous 







2018-07-02 21:28  
krigg070
не почув різниці в голосах.

krigg070 
Відео Гуртом - фільмокрай
Відео Гуртом - фільмокрай


З нами з: 29.10.14
Востаннє: 19.09.20
Повідомлень: 1772

2018-07-02 21:37  
На dorizhky.hurtom.com є дороги від К1 та Кіно, можеш порівняти.
Anonymous 







2018-07-02 22:59  
krigg070
так і є.. мабуть коли слухав перший раз попав на фрагмент де мало відрізнялось і тому не почув різниці.

ibobalo 
Новенький


З нами з: 09.04.08
Востаннє: 18.09.20
Повідомлень: 14

2018-07-09 14:38  
дякую за реліз але якість картинки посередня. виглядає на апскейл і занадто сильним шарпом. а кіно класне.
Taran2L_87 
Свій


З нами з: 28.05.08
Востаннє: 19.09.20
Повідомлень: 72

2019-09-05 09:15  
Anonymous написано:
можу скахати що це явно не апскей з 480п

Це апскейл з 576р Wide grin
ibobalo написано:
виглядає на апскейл і занадто сильним шарпом

В точку! Пройшлися чимось типу LSFmod.

Собі в колекцію взяв оригінальний DVD9 зі звуком з Гуртому, а це банальний апскейл. До речі, це видно відразу з Info:
Цитата:
Writing library : core 148 r2744kMod b97ae06

Стара бібіліотека кодування модифікована та зібрана росіянином (http://komisar.gin.by).

Кому цікаво, архів порівняльних скрінів тут:
https://www.mediafire.com/file/1zqu0r2tfr71nyx/
А тут зручно дивитися їхню різницю:
https://www.diffchecker.com/image-diff
Особливо яскраво це видно на останніх кадрах з вибухом машини.

Ваш часовий пояс: GMT + 2 Години

Нова тема   Відповісти