Формула 1. Сезон 2018. Етап 9. Гран-Прі Австрії. Кваліфікація (30.06.2018) 1080p Ukr/Eng

Нові коментарі

Нова тема   Відповісти
Останній раз роздавалося VicCob (2020-09-06)
Автор Повідомлення
sergiyko.5 
Забанено
Забанено


З нами з: 25.02.16
Востаннє: 29.10.20
Повідомлень: 3651

2018-06-30 21:28  
Формула 1. Сезон 2018. Етап 9. Гран-Прі Австрії. Кваліфікація (30.06.2018) 1080p Ukr/Eng


Формула 1. Сезон 2018. Етап 9. Гран-Прі Австрії. Кваліфікація (30.06.2018) 1080p Ukr/Eng

Жанр: Перегони Формули 1
Країна: Австрія
Телеканал: Перший автомобільний
Коментатор: Максим Подзігун

Опис:
Кваліфікація девятого етапу Гран-Прі Австрії 2018 року.


Тривалість: 01:10:57
Якість:

Відео: кодек: розмір кадру: 1920 х 1080 бітрейт: 6000 кб/с
Аудіо # 1: мова: українська (Перший автомобільний) кодек: 2.0 бітрейт: 192 кб/с
Аудіо # 2: мова: англійська (Sky Sport F1 HD) кодек: 2.0 бітрейт: 256 кб/с
Про файл:

General
Unique ID : 243999938000525400689914589820629837437 (0xB790ADBF707F602A4C78C521A8F8667D)
Complete name : D:\Torrents\SPORT\Formula 1\F1.2018.Qualifying\F1.2018.09.Austria.Qualifying.1080p..Ukr.Eng.
Format :
Format version : Version 4 / Version 2
File size : 3.19 GiB
Duration : 1 h 10 min
Overall bit rate mode : Variable
Overall bit rate : 6 442 kb/s
Encoded date : UTC 2018-06-30 19:19:13
Writing application : v24.0.0 ('Beyond The Pale') 64-bit
Writing library : libebml v1.3.6 + v1.4.9

Video
ID : 1
Format : AVC
Format/Info : Advanced Video Codec
Format profile : [email protected]
Format settings : CABAC / 2 Ref Frames
Format settings, CABAC : Yes
Format settings, ReFrames : 2 frames
Format settings, GOP : M=3, N=24
Codec ID : V_MPEG4/ISO/AVC
Duration : 1 h 10 min
Bit rate mode : Variable
Bit rate : 5 993 kb/s
Maximum bit rate : 12.4 Mb/s
Width : 1 920 pixels
Height : 1 080 pixels
Original height : 1 088 pixels
Display aspect ratio : 16:9
Original display aspect rat : 16:9
Frame rate mode : Constant
Frame rate : 50.000 FPS
Color space : YUV
Chroma subsampling : 4:2:0
Bit depth : 8 bits
Scan type : Progressive
Bits/(Pixel*Frame) : 0.058
Stream size : 2.97 GiB (93%)
Title : Sky Sports F1 HD
Language : English
Default : Yes
Forced : No

Audio #1
ID : 2
Format : AC-3
Format/Info : Audio Coding 3
Codec ID : A_AC3
Duration : 1 h 10 min
Bit rate mode : Constant
Bit rate : 192 kb/s
Channel(s) : 2 channels
Channel positions : Front: L R
Sampling rate : 48.0 kHz
Frame rate : 31.250 FPS (1536 SPF)
Bit depth : 16 bits
Compression mode : Lossy
Stream size : 97.4 MiB (3%)
Title : 1 Авто | Максим Подзігун
Language : Ukrainian
Service kind : Complete Main
Default : Yes
Forced : Yes

Audio #2
ID : 3
Format :
Format/Info : Advanced Audio Codec
Format profile : LC
Codec ID : A_AAC-2
Duration : 1 h 10 min
Bit rate : 253 kb/s
Channel(s) : 2 channels
Channel positions : Front: L R
Sampling rate : 48.0 kHz
Frame rate : 46.875 FPS (1024 SPF)
Compression mode : Lossy
Stream size : 129 MiB (4%)
Language : English
Default : No
Forced : No
Скріншоти:


Автор зведення: sergiyko


 Трекер:    Зареєстрований   

Завантажити / скачати торрент



відео для новачків



 Зареєстрований:   2018-06-30 21:28
 Розмір:   3.19 GB 
 Оцінка:   9.3/10 (Голосів: 13)
   
VicCob 
Свій


З нами з: 16.06.10
Востаннє: 25.10.20
Повідомлень: 58

2018-06-30 21:39  
Дякую!
butser 
Новенький


З нами з: 10.04.18
Востаннє: 29.10.20
Повідомлень: 15

2018-06-30 22:06  
Дуже дякую )
FedirSS 
Новенький


З нами з: 20.03.12
Востаннє: 23.04.20
Повідомлень: 1

2018-07-02 17:49  
Дякую тобі Боже що є Толока і Подзігун Wink (1)
Ваш часовий пояс: GMT + 2 Години

Нова тема   Відповісти