ВОЛЛ-І / WALL·E (2008) 1080p H.265 Ukr/Eng | Sub Ukr/Eng

Нові коментарі

Нова тема   Відповісти
Автор Повідомлення
ukr_anonymous 
Забанено
Забанено


З нами з: 16.04.18
Востаннє: 17.11.19
Повідомлень: 233

2018-06-30 20:47  
ВОЛЛ-І / WALL·E (2008) 1080p H.265 Ukr/Eng | Sub Ukr/Eng

ВОЛЛ-І / WALL·E (2008) 1080p H.265 Ukr/Eng | Sub Ukr/Eng
Альтернативний постер:



Жанр: анімація, пригодницький, комедія
Країна: США



Кінокомпанія: Pixar Animation Studios, Walt Disney Pictures; мейджор - Buena Vista Sony Pictures Releasing (BVSPR)
Режисер: Ендрю Стентон
Актори: Бен Бертт, Елісси Найт, Джеф Гарлін, Фред Уиллард, Джон Ратценбергер, Кеті Наджімі, Сігурні Уівер

Сюжет:
У 2100-х роках мегакорпорація Buy 'n Large взяла під контроль всю сферу економічних послуг на Землі. Через велику кількість відходів планета стає непридатною для життя. Намагаючись врятувати людство, Buy 'n Large вивозить його у космос на борту гігантського корабля «Аксіома». На очищення планети кинуті тисячі роботів ВОЛЛ-І, але через сімсот років у робочому стані залишається лише один ВОЛЛ-І. Одного разу на планету прилітає EVE (Extraterrestrial Vegetation Evaluator) — робот, надісланий з «Аксіоми» для пошуку рослинного життя. ВОЛЛ-І закохується у неї, але незважаючи на всі його зусилля, головним для EVE залишається її програма.


Тривалість: 01:38:42
Якість:
Відео:
кодек: H.265 (HEVC)
розмір кадру: 1920 х 802
бітрейт: 4 635 кб/с
бітова глибина: 10 біт
Увага! Перед завантаженням переконайтесь, що ваш пристрій відтворення (та/або ПЗ) підтримує H.265 (HEVC)

Аудіо # 1:
мова: українська
переклад: професійний дубльований
кодек: 5.1
бітрейт: 384 кб/с

Аудіо # 2:
мова: англійська
переклад: оригінал
кодек: 5.1
бітрейт: 640 кб/с

Субтитри # 1:
мова: українська
тип: програмні (м'які)
формат: *.srt

Субтитри # 2:
мова: англійська
тип: програмні (м'які)
формат: *.srt


Info
Код:
General
Unique ID                                : 112245904731579306388185805045295633269 (0x5471C66038F48EDF225C41A3B4225375)
Complete name                            : E:\Video\WALL·E (2008) 1080p H.265 [UKR_ENG].
Format                                   :
Format version                           : Version 4 / Version 2
File size                                : 3.90 GiB
Duration                                 : 1 h 38 min
Overall bit rate                         : 5 653 kb/s
Movie name                               : WALL·E (2008)
Encoded date                             : UTC 2018-12-04 16:02:51
Writing application                      : v20.0.0 ('I Am The Sun') 32-bit
Writing library                          : libebml v1.3.5 + v1.4.8
Cover                                    : Yes
Attachments                              : Cover.jpg

Video
ID                                       : 1
Format                                   : HEVC
Format/Info                              : High Efficiency Video Coding
Format profile                           : Main [email protected]@High
Codec ID                                 : V_MPEGH/ISO/HEVC
Duration                                 : 1 h 38 min
Bit rate                                 : 4 635 kb/s
Width                                    : 1 920 pixels
Height                                   : 802 pixels
Display aspect ratio                     : 2.40:1
Frame rate mode                          : Constant
Frame rate                               : 23.976 (23976/1000) FPS
Original frame rate                      : 23.976 (24000/1001) FPS
Color space                              : YUV
Chroma subsampling                       : 4:2:0
Bit depth                                : 10 bits
Bits/(Pixel*Frame)                       : 0.126
Stream size                              : 3.20 GiB (82%)
Writing library                          : x265 2.8+74-fd517ae68f93:[Windows][GCC 7.3.0][64 bit] 10bit
Encoding settings                        : cpuid=1111039 / frame-threads=13 / numa-pools=12 / wpp / no-pmode / no-pme / no-psnr / no-ssim / log-level=3 / input-csp=1 / input-res=1920x802 / interlace=0 / total-frames=0 / level-idc=41 / high-tier=1 / uhd-bd=0 / ref=5 / allow-non-conformance / no-repeat-headers / annexb / no-aud / no-hrd / info / hash=0 / no-temporal-layers / open-gop / min-keyint=24 / keyint=240 / gop-lookahead=0 / bframes=16 / b-adapt=2 / b-pyramid / bframe-bias=0 / rc-lookahead=60 / lookahead-slices=4 / scenecut=40 / radl=0 / no-intra-refresh / ctu=32 / min-cu-size=8 / rect / amp / max-tu-size=32 / tu-inter-depth=4 / tu-intra-depth=4 / limit-tu=0 / rdoq-level=2 / dynamic-rd=0.00 / no-ssim-rd / signhide / no-tskip / nr-intra=0 / nr-inter=0 / no-constrained-intra / no-strong-intra-smoothing / max-merge=3 / limit-refs=1 / limit-modes / me=3 / subme=7 / merange=57 / temporal-mvp / weightp / weightb / no-analyze-src-pics / deblock=-3:-3 / no-sao / no-sao-non-deblock / rd=6 / no-early-skip / rskip / no-fast-intra / no-tskip-fast / no-cu-lossless / no-b-intra / no-splitrd-skip / rdpenalty=0 / psy-rd=2.00 / psy-rdoq=1.00 / no-rd-refine / no-lossless / cbqpoffs=0 / crqpoffs=0 / rc=crf / crf=18.0 / qcomp=0.60 / qpstep=4 / stats-write=0 / stats-read=0 / vbv-maxrate=50000 / vbv-bufsize=50000 / vbv-init=0.9 / crf-max=30.0 / crf-min=0.0 / ipratio=1.40 / pbratio=1.30 / aq-mode=2 / aq-strength=1.00 / no-cutree / zone-count=0 / no-strict-cbr / qg-size=32 / no-rc-grain / qpmax=69 / qpmin=0 / no-const-vbv / sar=1 / overscan=0 / videoformat=5 / range=0 / colorprim=1 / transfer=1 / colormatrix=1 / chromaloc=0 / display-window=0 / max-cll=0,0 / min-luma=0 / max-luma=1023 / log2-max-poc-lsb=8 / vui-timing-info / vui-hrd-info / slices=1 / no-opt-qp-pps / no-opt-ref-list-length-pps / no-multi-pass-opt-rps / scenecut-bias=0.05 / no-opt-cu-delta-qp / no-aq-motion / no-hdr / no-hdr-opt / no-dhdr10-opt / no-idr-recovery-sei / analysis-reuse-level=5 / scale-factor=0 / refine-intra=0 / refine-inter=0 / refine-mv=0 / no-limit-sao / ctu-info=0 / no-lowpass-dct / refine-mv-type=0 / copy-pic=1 / max-ausize-factor=1.0 / no-dynamic-refine / no-single-sei
Default                                  : Yes
Forced                                   : No
Color range                              : Limited
Color primaries                          : BT.709
Transfer characteristics                 : BT.709
Matrix coefficients                      : BT.709

Audio #1
ID                                       : 2
Format                                   : AC-3
Format/Info                              : Audio Coding 3
Codec ID                                 : A_AC3
Duration                                 : 1 h 36 min
Bit rate mode                            : Constant
Bit rate                                 : 384 kb/s
Channel(s)                               : 6 channels
Channel positions                        : Front: L C R, Side: L R, LFE
Sampling rate                            : 48.0 kHz
Frame rate                               : 31.250 FPS (1536 SPF)
Bit depth                                : 16 bits
Compression mode                         : Lossy
Stream size                              : 265 MiB (7%)
Title                                    : АС3 5.1 @ 384 kbps - DUB
Language                                 : Ukrainian
Service kind                             : Complete Main
Default                                  : Yes
Forced                                   : Yes

Audio #2
ID                                       : 3
Format                                   : AC-3
Format/Info                              : Audio Coding 3
Codec ID                                 : A_AC3
Duration                                 : 1 h 38 min
Bit rate mode                            : Constant
Bit rate                                 : 640 kb/s
Channel(s)                               : 6 channels
Channel positions                        : Front: L C R, Side: L R, LFE
Sampling rate                            : 48.0 kHz
Frame rate                               : 31.250 FPS (1536 SPF)
Bit depth                                : 16 bits
Compression mode                         : Lossy
Stream size                              : 452 MiB (11%)
Title                                    : АС3 5.1 @ 640 kbps - Original
Language                                 : English
Service kind                             : Complete Main
Default                                  : No
Forced                                   : No

Text #1
ID                                       : 4
Format                                   : UTF-8
Codec ID                                 : S_TEXT/UTF8
Codec ID/Info                            : UTF-8 Plain Text
Duration                                 : 1 h 27 min
Bit rate                                 : 35 b/s
Count of elements                        : 514
Stream size                              : 22.4 KiB (0%)
Title                                    : Full
Language                                 : Ukrainian
Default                                  : Yes
Forced                                   : No

Text #2
ID                                       : 5
Format                                   : UTF-8
Codec ID                                 : S_TEXT/UTF8
Codec ID/Info                            : UTF-8 Plain Text
Duration                                 : 1 h 35 min
Bit rate                                 : 29 b/s
Count of elements                        : 794
Stream size                              : 20.7 KiB (0%)
Title                                    : Full
Language                                 : English
Default                                  : No
Forced                                   : No

Menu
00:00:00.000                             : en:Out There
00:03:36.299                             : en:Walk Home
00:05:49.682                             : en:WALL·E's Truck
00:09:18.766                             : en:A Day At Work
00:12:03.430                             : en:EVE Arrives
00:17:56.450                             : en:Confrontation
00:19:33.380                             : en:La Vie en Rose
00:21:10.143                             : en:Courting
00:23:46.800                             : en:WALL·E's Favorite Things
00:29:18.006                             : en:Bad Date
00:31:25.091                             : en:Time To Go
00:33:27.755                             : en:Space Travel
00:35:20.117                             : en:Docking
00:38:49.535                             : en:Welcome To The Axiom
00:42:53.529                             : en:Bridge Lobby
00:43:31.650                             : en:Captain On Deck
00:51:08.940                             : en:Define Earth
00:52:07.582                             : en:Repair Ward
00:54:47.450                             : en:Rogue Robots
00:56:05.778                             : en:Escape Pod
00:57:58.016                             : en:Cruising Speed
00:58:41.184                             : en:Spacewalk
01:02:14.897                             : en:The Lido Deck
01:03:21.047                             : en:It Only Takes A Moment
01:05:49.695                             : en:Code A113
01:11:44.883                             : en:Garbage Airlock
01:15:54.215                             : en:EVE To The Rescue
01:19:22.799                             : en:The Captain Vs. Auto
01:20:14.684                             : en:All Feet On Deck
01:24:14.090                             : en:Homecoming
01:25:45.765                             : en:Back Together
01:30:17.494                             : en:End Credits
Скріншоти





Джерело:
Особиста оцінка: 10 - без зайвих вагань рекомендую всім!


 Трекер:    Зареєстрований   

Завантажити / скачати мультфільм українською



відео для новачків



 Зареєстрований:   2018-12-06 21:46
 Розмір:   3.9 GB 
 Оцінка мультфільму:   9.9/10 (Голосів: 63)
   
Інші релізи
   ВОЛЛ-І / WALL·E (2008) UHD Remux 4K 2160p HDR H.265 Ukr/Eng | Sub Ukr/Eng vgfu34  14 / 2   34.05 GB   2021-01-03 22:27 
   ВОЛЛ·І / WALL·E (2008) AVC Ukr/Eng | Sub Ukr/Eng vovikmar  23 / 0   2.13 GB   2020-06-14 16:06 
   ВОЛЛ-І / WALL·E (2008) 720p Ukr/Eng | Sub Ukr/Eng braveboy  19 / 0   4.35 GB   2012-03-28 23:12 
   ВОЛЛ·І / WALL·E (2008) karvai0  20 / 0   1.45 GB   2010-04-03 13:05 
   ВОЛЛ-І / WALL·E (2008) 1080p Ukr/Rus/Eng | Sub Eng lex  37 / 1   6.57 GB   2009-06-08 18:07 
hofter 
Частий відвідувач


З нами з: 25.02.15
Востаннє: 19.02.21
Повідомлень: 32

2018-10-06 14:09  
Дуже дякую за те, що розмістили фільм тут!
ukr_anonymous 
Забанено
Забанено


З нами з: 16.04.18
Востаннє: 17.11.19
Повідомлень: 233

2018-10-08 19:41  
hofter
На здоров'я!

ukr_anonymous 
Забанено
Забанено


З нами з: 16.04.18
Востаннє: 17.11.19
Повідомлень: 233

2018-11-03 12:56  
Оновлення! Замінив відеоряд на кращий (немає чорних ліній та більший бітрейт), також дубляж з більшим бітрейтом.

igor911 
Модератор відео


З нами з: 18.01.08
Востаннє: 25.02.21
Повідомлень: 15544

2018-11-03 22:20  
ukr_anonymous написано:
також дубляж з більшим бітрейтом

тобто замінив ліцензійний звук з DVD на старий, незрозуміло ким і як дутий.

ukr_anonymous 
Забанено
Забанено


З нами з: 16.04.18
Востаннє: 17.11.19
Повідомлень: 233

2018-11-03 22:56  
igor911
Я ж не знав, що він дутий, думав, може з блюра

armogun 
Попереджень: 1
Попереджень: 1 


З нами з: 04.05.13
Востаннє: 17.02.21
Повідомлень: 707

2018-11-11 19:18  
і не скажеш що мульту 10 стукнуло
vash1 
VIP


З нами з: 16.03.16
Востаннє: 25.02.21
Повідомлень: 294

2018-11-30 11:21  
Було б класно замінити звук на 384 kbps, оскільки він НАБАГАТО(!) якісніший за 448 kbps,
не зважаючи на те що за технічними характеристиками 448 kbps "виграє" у 384 kbps:

- більший бітрейт
- звук на 448 kbps не "дутий". присутні усі канали
- спект 448 kbps виглядає краще, ніж 384 kbps. у 384 kbps зріз на 17 kHz, у 448 kbps - на 18 kHz





Була думка, що це апконверт з 384 kbps у 448 kbps, проте, схоже, ні.
Швидше за все, невдалий експеримент з заміни центрального каналу з усіма наслідками.

ukr_anonymous 
Забанено
Забанено


З нами з: 16.04.18
Востаннє: 17.11.19
Повідомлень: 233

2018-11-30 13:18  
vash1
Бачу, що ця доріжка у Вас в наявності - поділіться нею, будь ласка, а я заміню.

vash1 
VIP


З нами з: 16.03.16
Востаннє: 25.02.21
Повідомлень: 294

2018-11-30 15:19  
ukr_anonymous, доріжку взяв з релізу

ВОЛЛ·І / WALL·E (2008) - 1.45 GB

можу залити окремо. тільки скажіть куди.

ukr_anonymous 
Забанено
Забанено


З нами з: 16.04.18
Востаннє: 17.11.19
Повідомлень: 233

2018-12-06 21:47  
Заміна звуку, з дутої доріжки на ліцензію з ДВД.
vash1 
VIP


З нами з: 16.03.16
Востаннє: 25.02.21
Повідомлень: 294

2019-01-20 13:53  
ukr_anonymous, супер! дякую дуже
roldan 
Новенький


З нами з: 12.04.08
Востаннє: 23.02.21
Повідомлень: 16

2020-12-26 22:10  
Шкода, що відеоряд російський
RoMeL 
Відео Гуртом - підтримка та поширення
Відео Гуртом - підтримка та поширення


З нами з: 09.07.08
Востаннє: 25.02.21
Повідомлень: 328

2020-12-26 22:16  
roldan
буде скоро в 4К з оригінальним відеорядом

Ваш часовий пояс: GMT + 2 Години

Нова тема   Відповісти