Проблема з кодуванням

Нові коментарі

Нова тема   Відповісти
Автор Повідомлення
leicheman 
Відео Гуртом - підтримка та поширення
Відео Гуртом - підтримка та поширення


З нами з: 03.07.14
Востаннє: 17.06.19
Повідомлень: 3697

2018-06-30 21:14  
Є ремукси серіалу Беверлі Гіллз
проблема полягає в тому, що при кодуванні MeGui чомусь автоматично змінюється фпс відео то 40 то 50 при оригінальних 30-29 (я фпс не чіпаю)
а при кодуванні у Avidemux буває половину серії нормально, а інша половина починає плавати хвилями картинка
у xvidpsp усе добре, але час кодування при однакових налаштуваннях більший на 2.5 години
тут є шматочок відео вирізаного https://fex.net/681730581700
якщо є в когось, якісь ідеї в чому проблема то, будь ласка, допоможіть розібратися.
МІ ремуксу
Video
ID : 1
Format : MPEG Video
Format version : Version 2
Format profile : [email protected]
Format settings, BVOP : Yes
Format settings, Matrix : Custom
Format settings, GOP : Variable
Format settings, picture struc : Frame
Codec ID : V_MPEG2
Codec ID/Info : MPEG 1 or 2 Video
Duration : 45 min 54 s
Bit rate mode : Variable
Bit rate : 5 177 kb/s
Maximum bit rate : 9 800 kb/s
Width : 720 pixels
Height : 480 pixels
Display aspect ratio : 4:3
Frame rate mode : Constant
Frame rate : 30.033 FPS
Original frame rate : 29.970 (30000/1001) FPS
Color space : YUV
Chroma subsampling : 4:2:0
Bit depth : 8 bits
Scan type : Interlaced
Scan order : Top Field First
Compression mode : Lossy
Bits/(Pixel*Frame) : 0.499
Time code of first frame : 00:59:59;00
Time code source : Group of pictures header
Stream size : 1.66 GiB (88%)
Title : Misery Loves Company
Language : English
Default : Yes
Forced : No

Audio #1
ID : 2
Format : AC-3
Format/Info : Audio Coding 3
Format settings, Endianness : Big
Codec ID : A_AC3
Duration : 45 min 54 s
Bit rate mode : Constant
Bit rate : 192 kb/s
Channel(s) : 2 channels
Channel positions : Front: L R
Sampling rate : 48.0 kHz
Frame rate : 31.250 FPS (1536 SPF)
Bit depth : 16 bits
Compression mode : Lossy
Stream size : 63.0 MiB (3%)
Title : 1+1
Language : Ukrainian
Service kind : Complete Main
Default : Yes
Forced : No
igor911 
Модератор відео


З нами з: 18.01.08
Востаннє: 17.06.19
Повідомлень: 12654

2018-06-30 23:25  
leicheman, спробував закодувати останнім MeGui - при аналізі джерела по автомату його визначає як гібридне (частково інтерлейс, частково прогресивне):

лог:
-[NoImage] Progressive sections: 33
-[NoImage] Interlaced sections: 28
-[NoImage] Partially Static Sections: 1
-[NoImage] Film Sections: 105
-[NoImage] Source is declared hybrid film/ntsc. Majority is film.
-[NoImage] Source is declared tff by a margin of 32 to 3.
до того ж
Frame rate mode : Variable
Frame rate : 30.000 FPS
Original frame rate : 29.970 (30000/1001) FPS

скрипт:
LoadPlugin("...\MeGUI\tools\lsmash\LSMASHSource.dll")
LWLibavVideoSource("...\01 - 2192050 - Misery Loves Company.CUT.33'08-33'36..lwi")
LoadPlugin("...\MeGUI\tools\avisynth_plugin\TIVTC.dll")
tfm(order=1).tdecimate(hybrid=1)
crop(8, 0, -8, 0)
результат
Video
ID : 1
Format : AVC
Format/Info : Advanced Video Codec
Format profile : [email protected]
Format settings : CABAC / 12 Ref Frames
Format settings, CABAC : Yes
Format settings, ReFrames : 12 frames
Codec ID : V_MPEG4/ISO/AVC
Duration : 27 s 903 ms
Bit rate : 3 994 kb/s
Width : 704 pixels
Height : 480 pixels
Display aspect ratio : 3:2
Frame rate mode : Constant
Frame rate : 23.976 (24000/1001) FPS
Color space : YUV
Chroma subsampling : 4:2:0
Bit depth : 8 bits
Scan type : Progressive
Bits/(Pixel*Frame) : 0.493
Stream size : 13.3 MiB (100%)
Writing library : core 155 r2901 7d0ff22
Encoding settings : cabac=1 / ref=12 / deblock=1:-1:-1 / analyse=0x3:0x133 / me=umh / subme=10 / psy=1 / psy_rd=1.00:0.15 / mixed_ref=1 / me_range=32 / chroma_me=1 / trellis=2 / 8x8dct=1 / cqm=0 / deadzone=21,11 / fast_pskip=0 / chroma_qp_offset=-3 / threads=12 / lookahead_threads=2 / sliced_threads=0 / nr=0 / decimate=1 / interlaced=0 / bluray_compat=0 / constrained_intra=0 / bframes=8 / b_pyramid=2 / b_adapt=2 / b_bias=0 / direct=3 / weightb=1 / open_gop=0 / weightp=2 / keyint=240 / keyint_min=23 / scenecut=40 / intra_refresh=0 / rc_lookahead=60 / rc=crf / mbtree=0 / crf=19.0 / qcomp=0.60 / qpmin=0 / qpmax=69 / qpstep=4 / vbv_maxrate=9800 / vbv_bufsize=12250 / crf_max=0.0 / nal_hrd=none / filler=0 / ip_ratio=1.40 / pb_ratio=1.30 / aq=3:0.80
Default : Yes
Forced : No

https://fex.net/729579522353
Додано через 1 хвилину 50 секунд:

отже, ріп вийшов з фпс 23.976
leicheman 
Відео Гуртом - підтримка та поширення
Відео Гуртом - підтримка та поширення


З нами з: 03.07.14
Востаннє: 17.06.19
Повідомлень: 3697

2018-07-01 00:06  
igor911
igor911 написано:
частково інтерлейс, частково прогресивне

ага, от чому авідемукс тупив і поливна нормально, а інша "хвилями"

дякую, на megui усе вийшло, як треба тепер =)
Ваш часовий пояс: GMT + 2 Години

Нова тема   Відповісти