Форрест Ґамп / Forrest Gump (1994) 1080р H.265 2xUkr/Eng | Sub Ukr/Eng

Нові коментарі

Нова тема   Відповісти
Автор Повідомлення
ukr_anonymous 
Попереджень: 1
Попереджень: 1 


З нами з: 16.04.18
Востаннє: 12.12.18
Повідомлень: 231

2018-06-30 20:14  
Форрест Ґамп / Forrest Gump (1994) 1080р H.265 2xUkr/Eng | Sub Ukr/Eng

Форрест Ґамп / Forrest Gump (1994) 1080р H.265 2xUkr/Eng | Sub Ukr/Eng


Жанр: драма, романтичний
Країна: США



Кінокомпанія: Paramount Pictures
Режисер: Роберт Земекіс / Robert Zemeckis
Актори: Том Генкс / Tom Hanks, Робін Райт / Robin Wright, Ґері Сініз / Gary Sinise, Майкелті Вільямсон / Mykelti Williamson, Саллі Філд / Sally Field, Ребекка Вільямс / Rebecca Williams, Майкл Коннер Гемпфрі / Michael Conner Humphreys, Гейлі Джоел Осмент / Haley Joel Osment, Гарольд Джі Гертем / Harold G. Herthum, Джордж Келлі / George Kelly, Курт Раселл / Kurt Russell

Сюжет:
Фантастичним чином перетворюється він у відомого футболіста, героя війни, успішного бізнесмена. Він стає мільярдером, але залишається таким же нехитрим, придуркуватим і добрим. Форреста чекає постійний успіх у всьому, а він кохає дівчину, з якою дружив в дитинстві, але взаємність приходить дуже пізно.


Тривалість: 02:22:09
Якість:
Відео:
кодек: H.265 (HEVC)
розмір кадру: 1920 х 816
бітрейт: 5 000 кб/с
бітова глибина: 10 біт
Увага! Перед завантаженням переконайтесь, що ваш пристрій відтворення (та/або ПЗ) підтримує H.265 (HEVC)

Аудіо # 1:
мова: українська
переклад: багатоголосий закадровий
кодек: 5.1 (псевдо-5.1)
бітрейт: 384 кб/с
примітка: найгірша за якістю запису доріжка, озвучення ідентичне по Інтеру

Аудіо # 2:
мова: українська
переклад: багатоголосий закадровий
кодек: 2.0
бітрейт: 192 кб/с
примітка: озвучення ідентичне Новому каналу, краща якість запису та звуку

Аудіо # 3:
мова: українська
переклад: багатоголосий закадровий
кодек: 2.0
бітрейт: 192 кб/с

Аудіо # 4:
мова: англійська
переклад: оригінал
кодек: 5.1
бітрейт: 640 кб/с

Субтитри # 1:
мова: українська
тип: програмні (м'які)
формат: *.srt

Субтитри # 2:
мова: англійська
тип: програмні (м'які)
формат: *.srt
Info
General
Unique ID : 110064844882855620751982131177125791219 (0x52CDB7D2AD427C6608A7CA80604745F3)
Complete name : E:\video\Forrest Gump (1994) 1080p H.265 [3xUKR_ENG].
Format :
Format version : Version 4 / Version 2
File size : 6.36 GiB
Duration : 2 h 22 min
Overall bit rate : 6 401 kb/s
Movie name : Forrest Gump (1994)
Encoded date : UTC 2018-06-30 10:14:43
Writing application : v22.0.0 ('At The End Of The World') 64-bit
Writing library : libebml v1.3.5 + v1.4.8
Cover : Yes
Attachments : Cover.jpg

Video
ID : 1
Format : HEVC
Format/Info : High Efficiency Video Coding
Format profile : Main [email protected]@Main
Codec ID : V_MPEGH/ISO/HEVC
Duration : 2 h 22 min
Bit rate : 5 000 kb/s
Width : 1 920 pixels
Height : 816 pixels
Display aspect ratio : 2.35:1
Frame rate mode : Constant
Frame rate : 23.976 (24000/1001) FPS
Color space : YUV
Chroma subsampling : 4:2:0
Bit depth : 10 bits
Bits/(Pixel*Frame) : 0.133
Stream size : 4.97 GiB (78%)
Writing library : x265 2.8+19-bcdc610cf5f0:[Windows][GCC 7.3.0][64 bit] 10bit
Encoding settings : cpuid=1111039 / frame-threads=3 / numa-pools=8 / wpp / no-pmode / no-pme / no-psnr / no-ssim / log-level=2 / input-csp=1 / input-res=1920x816 / interlace=0 / total-frames=204501 / level-idc=0 / high-tier=1 / uhd-bd=0 / ref=4 / no-allow-non-conformance / no-repeat-headers / annexb / no-aud / no-hrd / info / hash=0 / no-temporal-layers / open-gop / min-keyint=23 / keyint=250 / gop-lookahead=0 / bframes=4 / b-adapt=2 / b-pyramid / bframe-bias=0 / rc-lookahead=25 / lookahead-slices=4 / scenecut=40 / radl=0 / no-intra-refresh / ctu=64 / min-cu-size=8 / rect / no-amp / max-tu-size=32 / tu-inter-depth=1 / tu-intra-depth=1 / limit-tu=0 / rdoq-level=2 / dynamic-rd=0.00 / no-ssim-rd / signhide / no-tskip / nr-intra=0 / nr-inter=0 / no-constrained-intra / strong-intra-smoothing / max-merge=3 / limit-refs=3 / limit-modes / me=3 / subme=3 / merange=57 / temporal-mvp / weightp / no-weightb / no-analyze-src-pics / deblock=0:0 / sao / no-sao-non-deblock / rd=4 / no-early-skip / rskip / no-fast-intra / no-tskip-fast / no-cu-lossless / no-b-intra / no-splitrd-skip / rdpenalty=0 / psy-rd=2.00 / psy-rdoq=1.00 / no-rd-refine / no-lossless / cbqpoffs=0 / crqpoffs=0 / rc=abr / bitrate=5000 / qcomp=0.60 / qpstep=4 / stats-write=0 / stats-read=2 / cplxblur=20.0 / qblur=0.5 / ipratio=1.40 / pbratio=1.30 / aq-mode=3 / aq-strength=1.00 / cutree / zone-count=0 / no-strict-cbr / qg-size=32 / no-rc-grain / qpmax=69 / qpmin=0 / no-const-vbv / sar=0 / overscan=0 / videoformat=5 / range=0 / colorprim=2 / transfer=2 / colormatrix=2 / chromaloc=0 / display-window=0 / max-cll=0,0 / min-luma=0 / max-luma=1023 / log2-max-poc-lsb=8 / vui-timing-info / vui-hrd-info / slices=1 / no-opt-qp-pps / no-opt-ref-list-length-pps / multi-pass-opt-rps / scenecut-bias=0.05 / no-opt-cu-delta-qp / aq-motion / no-hdr / no-hdr-opt / no-dhdr10-opt / no-idr-recovery-sei / analysis-reuse-level=5 / scale-factor=0 / refine-intra=0 / refine-inter=0 / refine-mv=0 / no-limit-sao / ctu-info=0 / no-lowpass-dct / refine-mv-type=0 / copy-pic=1 / max-ausize-factor=1.0 / no-dynamic-refine / no-single-sei
Default : Yes
Forced : No

Audio #1
ID : 2
Format : AC-3
Format/Info : Audio Coding 3
Codec ID : A_AC3
Duration : 2 h 18 min
Bit rate mode : Constant
Bit rate : 384 kb/s
Channel(s) : 6 channels
Channel positions : Front: L C R, Side: L R, LFE
Sampling rate : 48.0 kHz
Frame rate : 31.250 FPS (1536 SPF)
Bit depth : 16 bits
Compression mode : Lossy
Delay relative to video : 12 s 408 ms
Stream size : 380 MiB (6%)
Title : 5.1 384 кб/с | багатоголосий закадровий | Нови Канал
Language : Ukrainian
Service kind : Complete Main
Default : Yes
Forced : No

Audio #2
ID : 3
Format : AC-3
Format/Info : Audio Coding 3
Codec ID : A_AC3
Duration : 2 h 22 min
Bit rate mode : Constant
Bit rate : 192 kb/s
Channel(s) : 2 channels
Channel positions : Front: L R
Sampling rate : 48.0 kHz
Frame rate : 31.250 FPS (1536 SPF)
Bit depth : 16 bits
Compression mode : Lossy
Stream size : 195 MiB (3%)
Title : 2.0 192 кб/с | багатоголосий закадровий | ІНТЕР
Language : Ukrainian
Service kind : Complete Main
Default : No
Forced : No

Audio #3
ID : 4
Format : AC-3
Format/Info : Audio Coding 3
Codec ID : A_AC3
Duration : 2 h 22 min
Bit rate mode : Constant
Bit rate : 192 kb/s
Channel(s) : 2 channels
Channel positions : Front: L R
Sampling rate : 48.0 kHz
Frame rate : 31.250 FPS (1536 SPF)
Bit depth : 16 bits
Compression mode : Lossy
Stream size : 195 MiB (3%)
Title : 2.0 192 кб/с | багатоголосий закадровий | ictv
Language : Ukrainian
Service kind : Complete Main
Default : No
Forced : No

Audio #4
ID : 5
Format : AC-3
Format/Info : Audio Coding 3
Codec ID : A_AC3
Duration : 2 h 22 min
Bit rate mode : Constant
Bit rate : 640 kb/s
Channel(s) : 6 channels
Channel positions : Front: L C R, Side: L R, LFE
Sampling rate : 48.0 kHz
Frame rate : 31.250 FPS (1536 SPF)
Bit depth : 16 bits
Compression mode : Lossy
Stream size : 651 MiB (10%)
Title : ENG DD 5.1, 48 kHz, 640 kbps
Language : English
Service kind : Complete Main
Default : No
Forced : No

Text #1
ID : 6
Format : UTF-8
Codec ID : S_TEXT/UTF8
Codec ID/Info : UTF-8 Plain Text
Duration : 2 h 13 min
Bit rate : 76 b/s
Count of elements : 1333
Stream size : 74.4 KiB (0%)
Language : Ukrainian
Default : No
Forced : No

Text #2
ID : 7
Format : UTF-8
Codec ID : S_TEXT/UTF8
Codec ID/Info : UTF-8 Plain Text
Duration : 2 h 11 min
Bit rate : 61 b/s
Count of elements : 1592
Stream size : 59.4 KiB (0%)
Language : English
Default : No
Forced : No

Menu
00:00:00.000 : en:I'm Forrest...Forrest Gump
00:06:43.570 : en:Mama
00:12:24.577 : en:Like Peas and Carrots
00:19:56.946 : en:Run Forrest Run!
00:31:13.705 : en:Private Gump
00:40:40.188 : en:Lieutenant Dan
00:44:18.114 : en:My Best Good Friend
00:56:34.474 : en:Wounded in the Buttocks
01:03:32.267 : en:You're My Girl
01:13:34.076 : en:National Celebrity
01:17:02.827 : en:Happy New Year
01:23:52.277 : en:Shrimp Boat Captain
01:34:59.944 : en:Bubba Gump
01:38:55.596 : en:Mamma's Trip to Heaven
01:43:52.893 : en:Jenny Comes Home
01:51:28.307 : en:A Little Run
01:58:54.711 : en:Forrest Meets Forrest
02:04:48.564 : en:Beloved Mother, Wife and Friend
02:15:25.200 : en:Credits
Скріншоти



[url=https://img.hurtom.com/image/Pzl][img]https://img.hurtom.com/i/2018/06/129b0f3ae9b9e7bf06.md.pn
Джерело:
Особиста оцінка: 10 - без зайвих вагань рекомендую всім!


Срібний реліз (на рейтинг впливає 50% завантаженого)
 Трекер:    Зареєстрований   

Завантажити / скачати фільм українською



відео для новачків



 Зареєстрований:   2018-06-30 20:14
 Розмір:   6.36 GB 
 Оцінка фільму:   9.2/10 (Голосів: 13)
   
Інші релізи
   Форрест Ґамп / Forrest Gump (1994) Remux 1080р 2xUkr/Eng | Sub Ukr/Eng kryk-v.ya.  4 / 0   33.03 GB   2018-10-03 16:10 
   Форрест Ґамп / Форрест Гамп / Forrest Gump (1994) AVC 2xUkr Patriot_ukr  11 / 0   2.73 GB   2017-02-24 21:12 
   Форрест Ґамп / Forrest Gump (1994) 720р 2xUkr/Eng | Sub Ukr/Eng kino.  12 / 4   9.09 GB   2015-11-10 18:20 
   Форрест Гамп / Forrest Gump (1994) 2xUkr/Eng Arsenfpu  14 / 0   2.32 GB   2015-11-08 17:16 
   Форрест Ґамп / Forrest Gump (1994) 1080р Ukr/Eng | Sub Ukr/Eng nazar_9527  12 / 0   15.31 GB   2014-01-10 16:46 
   Форрест Ґамп / Forrest Gump (1994) Ukr/Eng | Sub Ukr/Eng karvai0  5 / 0   2.56 GB   2013-11-26 22:10 
   Форрест Гамп / Forrest Gump (1994) LIONN  8 / 0   2.05 GB   2009-12-20 18:16 
slvnd 
Відео Гуртом - субтитрування
Відео Гуртом - субтитрування


З нами з: 17.04.14
Востаннє: 26.11.18
Повідомлень: 25

2018-06-30 20:44  
дякую!
igor911 
Відео Гуртом
Відео Гуртом


З нами з: 18.01.08
Востаннє: 13.12.18
Повідомлень: 11582

2018-10-03 19:40  
Виправив 3хУкр на 2хУкр у заголовках, оскільки по Інтеру та Новому ідентичні озвучення. Також додав інформацію про низьку якість запису дутої доріжки з Нового.
Ваш часовий пояс: GMT + 2 Години

Нова тема   Відповісти