Великий Білий тягар / The Big White (2005) 720p Ukr/Eng | Sub Eng

Нові коментарі

Нова тема   Відповісти
Автор Повідомлення
Anonymous 







2018-06-30 13:53  
Великий Білий тягар / The Big White (2005) 720p Ukr/Eng | Sub Eng

Великий Білий тягар / The Big White (2005) 720p Ukr/Eng | Sub Eng


Жанр: чорна комедія, драма, кримінальний
Країна: США, Канада, Нова Зеландія, Німеччина



Кінокомпанія: Ascendant Pictures, Capitol Films, Film & Entertainment VIP Medienfonds 2 GmbH & Co. KG, Rising Star
Режисер: Марк Майлод / Mark Mylod
Актори: Робін Вільямс / Robin Williams /, Вуді Харрельсон / Woody Harrelson /, Холлі Хантер / Holly Hunter /, Елісон Ломан / Alison Lohman /, Тім Блейк Нельсон / Tim Blake Nelson /, Джованні Рібізі / Giovanni Ribisi

Сюжет:
Забутий і всіма покинутий агент бюро подорожей для вирішення своїх фінансових проблем намагається використовувати .. випадково знайдений ним на смітнику замерзлий труп, видаючи його за свого брата, що давно загубився, і намагаючись одержати його страховку. Все було б добре якби цим трупом не зацікавилася парочка найманих вбивць, а також інші представники кримінального світу.

Хтось з користувачів imdb не тільки порівняв цей фільм (його назва дослівно означає «Великий білий», а якщо мати на увазі поліцейські звіти про злочини, то піде і варіант «Труп великої білої людини») з «Фарго» братів Коен, але і взагалі відзначив, що декому робота невідомого Марка Майлода може навіть сподобатися більше.
Проте на екрани американських кінотеатрів дану стрічку, що обійшлася в $18 млн., зовсім не поспішають випускати, і поки що вона промайнула лише на тиждень в Італії, де глядачів зовсім не спокусили екстравагантно-кримінальні повороти дії, що розігрується на досить екзотичному для багатьох мешканців південних широт засніженому фоні Аляски.
І відомі голлівудські актори, включаючи Робіна Вільямса, якому не так давно вже доводилося зніматися в «Безсонні» на території найпівнічнішого штату США, теж не стали приманкою для публіки.


Тривалість: 01:44:44
Якість: 720p
Відео:
кодек:
розмір кадру: 1280х720
бітрейт: 4 463 кб/с

Аудіо # 1:
мова: українська
переклад: багатоголосий закадровий |
кодек: 2.0 (з 5.1)
бітрейт: 192 кб/с

Аудіо # 2:
мова: англійська
переклад: оригінал
кодек: 5.1
бітрейт: 1510 кб/с

Субтитри:
мова: англійська
тип: програмні (м'які)
формат: *.srt
Info
General
Unique ID : 191656511912148018712760345212404389489 (0x902FB397A8033E56AE5AD505BD685671)
Format :
Format version : Version 4 / Version 2
File size : 4.51 GiB
Duration : 1 h 44 min
Overall bit rate : 6 167 kb/s
Encoded date : UTC 2018-06-30 10:48:42
Writing application : v6.1.0 ('Old Devil') built on Mar 4 2013 09:10:42
Writing library : libebml v1.3.0 + v1.4.0

Video
ID : 1
Format : AVC
Format/Info : Advanced Video Codec
Format profile : [email protected]
Format settings, CABAC : Yes
Format settings, ReFrames : 5 frames
Codec ID : V_MPEG4/ISO/AVC
Duration : 1 h 44 min
Bit rate : 4 463 kb/s
Width : 1 280 pixels
Height : 720 pixels
Display aspect ratio : 16:9
Frame rate mode : Constant
Frame rate : 23.976 (24000/1001) FPS
Color space : YUV
Chroma subsampling : 4:2:0
Bit depth : 8 bits
Scan type : Progressive
Bits/(Pixel*Frame) : 0.202
Stream size : 3.18 GiB (70%)
Writing library : core 60 r928 4816918
Encoding settings : cabac=1 / ref=5 / deblock=1:0:0 / analyse=0x3:0x113 / me=umh / subme=7 / brdo=1 / mixed_ref=1 / me_range=16 / chroma_me=1 / trellis=1 / 8x8dct=1 / cqm=0 / deadzone=21,11 / chroma_qp_offset=0 / threads=6 / nr=0 / decimate=1 / mbaff=0 / bframes=3 / b_pyramid=1 / b_adapt=1 / b_bias=0 / direct=1 / wpredb=1 / bime=1 / keyint=250 / keyint_min=25 / scenecut=40(pre) / rc=2pass / bitrate=4463 / ratetol=1.0 / rceq='blurCplx^(1-qComp)' / qcomp=1.00 / qpmin=10 / qpmax=51 / qpstep=4 / cplxblur=20.0 / qblur=0.5 / ip_ratio=1.40 / pb_ratio=1.30 / aq=2:1.00
Language : English
Default : Yes
Forced : No

Audio #1
ID : 2
Format : AC-3
Format/Info : Audio Coding 3
Format settings, Endianness : Big
Codec ID : A_AC3
Duration : 1 h 44 min
Bit rate mode : Constant
Bit rate : 192 kb/s
Channel(s) : 2 channels
Channel positions : Front: L R
Sampling rate : 48.0 kHz
Frame rate : 31.250 FPS (1536 spf)
Bit depth : 16 bits
Compression mode : Lossy
Stream size : 144 MiB (3%)
Title : UKR (K1)
Language : Ukrainian
Service kind : Complete Main
Default : Yes
Forced : Yes

Audio #2
ID : 3
Format :
Format/Info : Digital Theater Systems
Mode : 16
Format settings, Endianness : Big
Codec ID : A_DTS
Duration : 1 h 44 min
Bit rate mode : Constant
Bit rate : 1 510 kb/s
Channel(s) : 6 channels
Channel positions : Front: L C R, Side: L R, LFE
Sampling rate : 48.0 kHz
Frame rate : 93.750 FPS (512 spf)
Bit depth : 24 bits
Compression mode : Lossy
Stream size : 1.10 GiB (24%)
Title : ENG
Language : English
Default : No
Forced : No

Text
ID : 4
Format : UTF-8
Codec ID : S_TEXT/UTF8
Codec ID/Info : UTF-8 Plain Text
Title : ENG
Language : English
Default : Yes
Forced : No
Скріншоти






Дякуємо п. MAKAPOHHIK за укр.доріжку
Особиста подяка пану denixx за надану матеріальну допомогу на підтримку цього і майбутніх релізів.
Джерело:


 Трекер:    Зареєстрований   

Завантажити / скачати фільм українською



відео для новачків



 Зареєстрований:   2018-06-30 13:53
 Розмір:   4.51 GB 
 Оцінка фільму:   9.3/10 (Голосів: 3)
   
Інші релізи
   Великий Білий тягар / The Big White (2005) MAKAPOHHIK  2 / 0   1.45 GB   2010-04-23 14:21 
Wowatorrent 
Поважний учасник


З нами з: 24.03.16
Востаннє: 27.09.20
Повідомлень: 174

2018-06-30 14:01  
Можна ж навчитись додавати обкладинку до файлу. Це не складно.
Anonymous 







2018-06-30 14:16  
Wowatorrent
а хто вам заважає зробити це самостійно?

Wowatorrent 
Поважний учасник


З нами з: 24.03.16
Востаннє: 27.09.20
Повідомлень: 174

2018-06-30 14:20  
Anonymous , це робота релізера, оформити реліз, як слід.
Anonymous 







2018-06-30 14:40  
Wowatorrent
та шо ви кажите?!... а я ось вважаю що різної *ерні в файлі повинно бути по-мінімуму.

Істота 
Забанено
Забанено


З нами з: 24.06.18
Востаннє: 11.07.18
Повідомлень: 34

2018-06-30 14:49  
Wowatorrent
Яка тобі різниця? ти їх потім видаляєш

Wowatorrent 
Поважний учасник


З нами з: 24.03.16
Востаннє: 27.09.20
Повідомлень: 174

2018-06-30 15:39  
Істота, це тішить мою тонку натуру.
Ваш часовий пояс: GMT + 2 Години

Нова тема   Відповісти