Нестримні серця / All the Pretty Horses (2000) 720p Ukr/Eng | Sub Eng

Нові коментарі

Нова тема   Відповісти
Автор Повідомлення
Anonymous 







2018-06-30 09:37  
Нестримні серця / All the Pretty Horses (2000) 720p Ukr/Eng | Sub Eng

Нестримні серця / All the Pretty Horses (2000) 720p Ukr/Eng | Sub Eng
Альтернативний постер:



Жанр: драма, вестерн, мелодрама
Країна: США



Кінокомпанія: Columbia Pictures Corporation, Miramax Films
Режисер: Біллі Боб Торнтон / Billy Bob Thornton
Актори: Метт Деймон / Matt Damon, Генрі Томас / Henry Thomas, Пенелопа Крус / Penélope Cruz, Дж.Д. Янг / J.D. Young, Лаура По / Laura Poe та інші

Сюжет:
Двоє молодих ковбоїв - Джон Греді Коул і Лейсі Роулінс - залишають рідний Техас заради пошуку пригод та нових друзів у Мексиці. І, звичайно, з легкістю знаходять і те, і інше у цьому красивому і суворому краю. Там, у преріях, де пасуться стада прекрасних диких мустангів, Коул закохується в дочку багатого ранчеро. Але зв'язок грінго і мексиканки - це табу. Не в силах приборкати свою пристрасть, Коул накликає на себе, свою любов і своїх друзів смертельну небезпеку...


Тривалість: 01:57:01
Якість: 720p
Відео:
кодек:
розмір кадру: 1280х542
бітрейт: 3908 кб/с

Аудіо # 1:
мова: українська
переклад: багатоголосий закадровий |
кодек: 2.0 (з 5.1)
бітрейт: 192 кб/с

Аудіо # 2:
мова: англійська
переклад: оригінал
кодек: 5.1
бітрейт: 384 кб/с

Субтитри:
мова: англійська
тип: програмні (м'які)
формат: *.srt
Info
General
Unique ID : 192522122082720540201950793121371298776 (0x90D6697805198D779529A59C153C9BD8)
Complete name : H:\Toloka\2018\All.the.Pretty.Horses.2000..720p.
Format :
Format version : Version 4 / Version 2
File size : 3.74 GiB
Duration : 1 h 57 min
Overall bit rate : 4 575 kb/s
Movie name : All.the.Pretty.Horses.2000..720p
Encoded date : UTC 2018-06-30 06:16:27
Writing application : v6.1.0 ('Old Devil') built on Mar 4 2013 09:10:42
Writing library : libebml v1.3.0 + v1.4.0

Video
ID : 1
Format : AVC
Format/Info : Advanced Video Codec
Format profile : [email protected]
Format settings, CABAC : No
Format settings, ReFrames : 2 frames
Codec ID : V_MPEG4/ISO/AVC
Duration : 1 h 57 min
Bit rate : 3 908 kb/s
Width : 1 280 pixels
Height : 542 pixels
Display aspect ratio : 2.35:1
Frame rate mode : Constant
Frame rate : 23.976 FPS
Color space : YUV
Chroma subsampling : 4:2:0
Bit depth : 8 bits
Scan type : Progressive
Bits/(Pixel*Frame) : 0.235
Stream size : 3.19 GiB (85%)
Title : All.the.Pretty.Horses.2000..720p
Default : Yes
Forced : No
Color range : Limited
Color primaries : BT.709
Transfer characteristics : BT.709
Matrix coefficients : BT.709
Statistics Tags Issue : v8.3.0 ('Over the Horizon') 64bit 2015-08-31 06:22:27 / v6.1.0 ('Old Devil') built on Mar 4 2013 09:10:42 2018-06-30 06:16:27
FromStats_BitRate : 3996523
FromStats_Duration : 01:57:01.188000000
FromStats_FrameCount : 168340
FromStats_StreamSize : 3507543267

Audio #1
ID : 2
Format : AC-3
Format/Info : Audio Coding 3
Format settings, Endianness : Big
Codec ID : A_AC3
Duration : 1 h 57 min
Bit rate mode : Constant
Bit rate : 192 kb/s
Channel(s) : 2 channels
Channel positions : Front: L R
Sampling rate : 48.0 kHz
Frame rate : 31.250 FPS (1536 spf)
Bit depth : 16 bits
Compression mode : Lossy
Stream size : 161 MiB (4%)
Title : UKR (Inter)
Language : Ukrainian
Service kind : Complete Main
Default : Yes
Forced : Yes

Audio #2
ID : 3
Format : AC-3
Format/Info : Audio Coding 3
Format settings, Endianness : Big
Codec ID : A_AC3
Duration : 1 h 57 min
Bit rate mode : Constant
Bit rate : 384 kb/s
Channel(s) : 6 channels
Channel positions : Front: L C R, Side: L R, LFE
Sampling rate : 48.0 kHz
Frame rate : 31.250 FPS (1536 spf)
Bit depth : 16 bits
Compression mode : Lossy
Stream size : 321 MiB (8%)
Title : original
Language : English
Service kind : Complete Main
Default : No
Forced : No
Statistics Tags Issue : v8.3.0 ('Over the Horizon') 64bit 2015-08-31 06:22:27 / v6.1.0 ('Old Devil') built on Mar 4 2013 09:10:42 2018-06-30 06:16:27
FromStats_BitRate : 384000
FromStats_Duration : 01:57:01.184000000
FromStats_FrameCount : 219412
FromStats_StreamSize : 337016832

Text
ID : 4
Format : UTF-8
Codec ID : S_TEXT/UTF8
Codec ID/Info : UTF-8 Plain Text
Title : subtitle eng
Language : English
Default : No
Forced : No
Statistics Tags Issue : v8.3.0 ('Over the Horizon') 64bit 2015-08-31 06:22:27 / v6.1.0 ('Old Devil') built on Mar 4 2013 09:10:42 2018-06-30 06:16:27
FromStats_BitRate : 45
FromStats_Duration : 01:55:50.829000000
FromStats_FrameCount : 1386
FromStats_StreamSize : 39510

Menu
00:00:00.000 : en:1
00:09:13.000 : en:2
00:12:57.000 : en:3
00:18:18.000 : en:4
00:24:06.000 : en:5
00:31:14.000 : en:6
00:38:14.000 : en:7
00:49:07.000 : en:8
00:57:18.000 : en:9
01:02:21.000 : en:10
01:11:29.000 : en:11
01:21:16.000 : en:12
01:30:48.000 : en:13
01:41:58.000 : en:14
01:46:55.000 : en:15
01:51:39.000 : en:16
Скріншоти






Подяка пані SweetN за запис звуку а також пану Neo777 за його синхронізацію під .
Особиста подяка пану denixx за надану матеріальну допомогу на підтримку цього і майбутніх релізів.
Джерело:


Срібний реліз (на рейтинг впливає 50% завантаженого)
 Трекер:    Зареєстрований   

Завантажити / скачати фільм українською



відео для новачків



 Зареєстрований:   2018-06-30 09:37
 Розмір:   3.74 GB 
 Оцінка фільму:   5.5/10 (Голосів: 2)
   
Інші релізи
Ваш часовий пояс: GMT + 2 Години

Нова тема   Відповісти