Найкращий / Najlepszy / Breaking the Limits (2017) 720p Pol l sub Ukr/Eng

Нові коментарі

Нова тема   Відповісти
Автор Повідомлення
ivan vyrvyvuho 
VIP


З нами з: 19.08.12
Востаннє: 24.11.20
Повідомлень: 1176

2018-06-30 08:25  
Найкращий / Najlepszy / Breaking the Limits (2017) 720p Pol l sub Ukr/Eng

Найкращий / Najlepszy / Breaking the Limits (2017) 720p Pol l sub Ukr/Eng


Жанр: біографічний, драма, спорт
Країна: Польща



Кінокомпанія: Cavatina Studio, Iron Films, Lutetia
Режисер: Лукаш Палковський / Łukasz Palkowski
Актори: Якуб Ґєршал / Jakub Gierszał, Каміла Камінська / Kamila Kamińska, Єва Прухняк / Anna Próchniak, Аркадіуш Якубік / Arkadiusz Jakubik, Януш Ґайос / Janusz Gajos, Артур Жмієвський / Artur Żmijewski, Маґдалена Целецька / Magdalena Cielecka, Адам Вороновіч / Adam Woronowicz, Шимон Пйотр Варшавський / Szymon Piotr Warszawski, Матеуш Костюкевич / Mateusz Kościukiewicz, Томаш Кот / Tomasz Kot, Дельфіна Вілконська / Delfina Wilkońska, Якуб Зайонц / Jakub Zając, Збіґнєв Патерак / Zbigniew Paterak та інші.

Сюжет:
В основі фільму лежить історія польського спортсмена Єжи Ґурського. Його шлях від наркомана до чемпіона світу в змаганнях Дабл Айронмен з тріатлону.


Тривалість: 01:48:24
Якість:
Відео:
кодек:
розмір кадру: 1280 х 528
бітрейт: 4 888 кб/с

Аудіо:
мова: польська
переклад: оригінал
кодек: 5.1
бітрейт: 640 кб/с

Субтитри:
мова: українська
тип: програмні (м'які)
формат: *.srt
переклад: з польської ivan vyrvyvuho

Субтитри:
мова: англійська
тип: програмні (м'які)
формат: *.srt
Скріншоти





Медіаінфо
General
Unique ID : 252807523218879860831398952904977866454 (0xBE30F539CF5ECF5BAEF5A912056CDED6)
Complete name : D:\тор\Najlepszy (2017) [Pol,SubUkr,Eng]BDRip720p.
Format :
Format version : Version 2
File size : 4.18 GiB
Duration : 1 h 48 min
Overall bit rate : 5 525 kb/s
Encoded date : UTC 2018-06-24 14:08:20
Writing application : v5.6.0 ('Kenya Kane') built on May 27 2012 16:44:04
Writing library : libebml v1.2.3 + v1.3.0

Video
ID : 1
Format : AVC
Format/Info : Advanced Video Codec
Format profile : [email protected]
Format settings, CABAC : Yes
Format settings, ReFrames : 5 frames
Codec ID : V_MPEG4/ISO/AVC
Duration : 1 h 48 min
Bit rate : 4 888 kb/s
Width : 1 280 pixels
Height : 528 pixels
Display aspect ratio : 2.40:1
Frame rate mode : Constant
Frame rate : 24.000 FPS
Color space : YUV
Chroma subsampling : 4:2:0
Bit depth : 8 bits
Scan type : Progressive
Bits/(Pixel*Frame) : 0.301
Stream size : 3.62 GiB (86%)
Writing library : core 155 r2901 7d0ff22
Encoding settings : cabac=1 / ref=5 / deblock=1:0:0 / analyse=0x3:0x113 / me=hex / subme=8 / psy=1 / psy_rd=1.00:0.00 / mixed_ref=1 / me_range=16 / chroma_me=1 / trellis=2 / 8x8dct=1 / cqm=0 / deadzone=21,11 / fast_pskip=1 / chroma_qp_offset=-2 / threads=12 / lookahead_threads=2 / sliced_threads=0 / nr=0 / decimate=1 / interlaced=0 / bluray_compat=0 / constrained_intra=0 / bframes=3 / b_pyramid=2 / b_adapt=2 / b_bias=0 / direct=3 / weightb=1 / open_gop=0 / weightp=2 / keyint=250 / keyint_min=24 / scenecut=40 / intra_refresh=0 / rc_lookahead=50 / rc=2pass / mbtree=1 / bitrate=4888 / ratetol=1.0 / qcomp=0.60 / qpmin=0 / qpmax=69 / qpstep=4 / cplxblur=20.0 / qblur=0.5 / vbv_maxrate=62500 / vbv_bufsize=78125 / nal_hrd=none / filler=0 / ip_ratio=1.40 / aq=1:1.00
Default : Yes
Forced : Yes
Color range : Limited
Matrix coefficients : BT.709

Audio
ID : 2
Format : AC-3
Format/Info : Audio Coding 3
Mode extension : CM (complete main)
Format settings, Endianness : Big
Codec ID : A_AC3
Duration : 1 h 48 min
Bit rate mode : Constant
Bit rate : 640 kb/s
Channel(s) : 6 channels
Channel positions : Front: L C R, Side: L R, LFE
Sampling rate : 48.0 kHz
Frame rate : 31.250 FPS (1536 spf)
Bit depth : 16 bits
Compression mode : Lossy
Stream size : 496 MiB (12%)
Default : No
Forced : No

Text #1
ID : 3
Format : UTF-8
Codec ID : S_TEXT/UTF8
Codec ID/Info : UTF-8 Plain Text
Title : Ukr
Language : Ukrainian
Default : Yes
Forced : Yes

Text #2
ID : 4
Format : UTF-8
Codec ID : S_TEXT/UTF8
Codec ID/Info : UTF-8 Plain Text
Title : Eng
Language : English
Default : No
Forced : No
Джерело:
Особиста оцінка: 8 - мені сподобалося. Новий фільм від режисера "Богів" 2014. На мою думку, найкращий польський фільм минулого року.


Золотий реліз (завантажене не впливає на рейтинг)
 Трекер:    Зареєстрований   

Завантажити / скачати фільм українською



відео для новачків



 Зареєстрований:   2018-06-30 08:25
 Розмір:   4.18 GB 
 Оцінка фільму:   7.7/10 (Голосів: 9)
   
Вадька 
Частий відвідувач


З нами з: 02.07.11
Востаннє: 24.11.20
Повідомлень: 43

2020-02-03 02:21  
Фільм дуже мотивуючий. Рекомендую
trener76 
Новенький


З нами з: 23.02.20
Востаннє: 23.02.20
Повідомлень: 1

2020-02-23 13:47  
Станьте на роздачу, будь-ласка. Дякую.
ivan vyrvyvuho 
VIP


З нами з: 19.08.12
Востаннє: 24.11.20
Повідомлень: 1176

2020-02-23 13:52  
trener76 написано:
Станьте на роздачу, будь-ласка. Дякую.

Прошу, прошу.

Ваш часовий пояс: GMT + 2 Години

Нова тема   Відповісти