Ельвіра - володарка пітьми / Elvira - Mistress of the Dark (1988) 1080p Ukr/Eng | Sub Eng

Нові коментарі

Нова тема   Відповісти
Автор Повідомлення
Anonymous 







2018-06-30 05:39  
Ельвіра - володарка пітьми / Elvira - Mistress of the Dark (1988) 1080p Ukr/Eng | Sub Eng

Ельвіра - володарка пітьми / Elvira - Mistress of the Dark (1988) 1080p Ukr/Eng | Sub Eng


Жанр: казка, чорна комедія, жахи
Країна: США



Кінокомпанія: New World Pictures, NBC Productions
Режисер: Джеймс Сіґнореллі
Актори: Кассандра Петерсон, Вільям Морган Шеппард, Даніель Ґрін, Сюзан Келлерманн, Джефф Конавей, Еді МакКларґ, Вільям Дюель, Філ Рубенштайн, Ларрі Флеш Дженкінс, Даміта Йо Фріман, Тресс МакНейллі, Едвіна Мур, Маріо Келаріо, Лі МакЛайлін, Білл Свірінґен та ін.

Сюжет:
Для того, щоб влаштувати шоу в Лас-Вегасі, екстравагантній жінці - “вамп” Ельвірі не вистачає всього 50 тисяч доларів. Тому, дізнавшись, що її багата тітка Моргана померла, Ельвіра мчиться в патріархальне містечко Феллвелл штату Массачусетс, щоб встигнути до моменту читання заповіту. А спадок складається із старого будинку, маленького пуделя і куховарської книги. Але саме за цією книгою полює дядечко Ельвіри. Виявляється, це чарівна книга, і без неї старий чаклун не може оволодіти владою над світом. Розставити всі крапки над "i" належить Ельвірі, а заразом гарненько струсити це сонне містечко, що загрузнуло в лицемірстві, святенництві і чванстві.


Тривалість: 01:36:15
Якість: 1080p
Відео:
кодек:
розмір кадру: 1920х1036
бітрейт: 11.5 Mb/s

Аудіо # 1:
мова: українська
переклад: двоголосий закадровий |
кодек: 2.0
бітрейт: 192 кб/с

Аудіо # 2:
мова: англійська
переклад: оригінал
кодек: 5.1
бітрейт: 1509 кб/с

Субтитри:
мова: англійська
тип: програмні (м'які)
формат: *.srt
Info
General
Unique ID : 222275778764146741323996565153507343019 (0xA738C200B6A42989A1F25FF26CA27AAB)
Complete name : H:\Toloka\2018\Elvira.Mistress.of.the.Dark.1988..1080p.
Format :
Format version : Version 4 / Version 2
File size : 8.88 GiB
Duration : 1 h 36 min
Overall bit rate : 13.2 Mb/s
Encoded date : UTC 2018-06-30 03:32:14
Writing application : v6.1.0 ('Old Devil') built on Mar 4 2013 09:10:42
Writing library : libebml v1.3.0 + v1.4.0

Video
ID : 1
Format : AVC
Format/Info : Advanced Video Codec
Format profile : [email protected]
Format settings, CABAC : Yes
Format settings, ReFrames : 4 frames
Codec ID : V_MPEG4/ISO/AVC
Duration : 1 h 36 min
Bit rate : 11.5 Mb/s
Width : 1 920 pixels
Height : 1 036 pixels
Display aspect ratio : 1.85:1
Frame rate mode : Constant
Frame rate : 23.976 (24000/1001) FPS
Color space : YUV
Chroma subsampling : 4:2:0
Bit depth : 8 bits
Scan type : Progressive
Bits/(Pixel*Frame) : 0.241
Stream size : 7.56 GiB (85%)
Title : Elvira.Mistress.of.the Dark.1988.1080p.BluRay..-FGT
Writing library : core 148 r2795 aaa9aa8
Encoding settings : cabac=1 / ref=4 / deblock=1:-2:-2 / analyse=0x3:0x113 / me=umh / subme=9 / psy=1 / psy_rd=1.00:0.15 / mixed_ref=1 / me_range=16 / chroma_me=1 / trellis=2 / 8x8dct=1 / cqm=0 / deadzone=21,11 / fast_pskip=1 / chroma_qp_offset=-3 / threads=24 / lookahead_threads=3 / sliced_threads=0 / nr=0 / decimate=1 / interlaced=0 / bluray_compat=0 / constrained_intra=0 / bframes=3 / b_pyramid=2 / b_adapt=1 / b_bias=0 / direct=3 / weightb=1 / open_gop=0 / weightp=2 / keyint=250 / keyint_min=25 / scenecut=40 / intra_refresh=0 / rc_lookahead=50 / rc=2pass / mbtree=1 / bitrate=11500 / ratetol=1.0 / qcomp=0.60 / qpmin=0 / qpmax=69 / qpstep=4 / cplxblur=20.0 / qblur=0.5 / vbv_maxrate=31250 / vbv_bufsize=31250 / nal_hrd=none / filler=0 / ip_ratio=1.40 / aq=1:1.00
Language : English
Default : Yes
Forced : No
Statistics Tags Issue : v24.0.0 ('Beyond The Pale') 64-bit 2018-06-29 16:21:15 / v6.1.0 ('Old Devil') built on Mar 4 2013 09:10:42 2018-06-30 03:32:14
FromStats_BitRate : 11499848
FromStats_Duration : 01:36:15.979000000
FromStats_FrameCount : 138485
FromStats_StreamSize : 8302860427

Audio #1
ID : 2
Format : AC-3
Format/Info : Audio Coding 3
Format settings, Endianness : Big
Codec ID : A_AC3
Duration : 1 h 36 min
Bit rate mode : Constant
Bit rate : 192 kb/s
Channel(s) : 2 channels
Channel positions : Front: L R
Sampling rate : 48.0 kHz
Frame rate : 31.250 FPS (1536 spf)
Bit depth : 16 bits
Compression mode : Lossy
Stream size : 132 MiB (1%)
Title : UKR (Новий)
Language : Ukrainian
Service kind : Complete Main
Default : Yes
Forced : Yes

Audio #2
ID : 3
Format :
Format/Info : Digital Theater Systems
Mode : 16
Format settings, Endianness : Big
Codec ID : A_DTS
Duration : 1 h 36 min
Bit rate mode : Constant
Bit rate : 1 509 kb/s
Channel(s) : 6 channels
Channel positions : Front: L C R, Side: L R, LFE
Sampling rate : 48.0 kHz
Frame rate : 93.750 FPS (512 spf)
Bit depth : 24 bits
Compression mode : Lossy
Stream size : 1.01 GiB (11%)
Title : ENG
Language : English
Default : No
Forced : No
Statistics Tags Issue : v24.0.0 ('Beyond The Pale') 64-bit 2018-06-29 16:21:15 / v6.1.0 ('Old Devil') built on Mar 4 2013 09:10:42 2018-06-30 03:32:14
FromStats_BitRate : 1508999
FromStats_Duration : 01:36:15.979000000
FromStats_FrameCount : 541498
FromStats_StreamSize : 1089493976

Text
ID : 4
Format : UTF-8
Codec ID : S_TEXT/UTF8
Codec ID/Info : UTF-8 Plain Text
Language : English
Default : Yes
Forced : No
Statistics Tags Issue : v24.0.0 ('Beyond The Pale') 64-bit 2018-06-29 16:21:15 / v6.1.0 ('Old Devil') built on Mar 4 2013 09:10:42 2018-06-30 03:32:14
FromStats_BitRate : 59
FromStats_Duration : 01:33:00.324000000
FromStats_FrameCount : 1072
FromStats_StreamSize : 41653

Menu
00:00:00.000 : en:Chapter 01
00:01:37.055 : en:Chapter 02
00:07:20.231 : en:Chapter 03
00:12:08.185 : en:Chapter 04
00:20:51.917 : en:Chapter 05
00:34:35.198 : en:Chapter 06
00:55:32.370 : en:Chapter 07
01:05:32.929 : en:Chapter 08
01:21:18.331 : en:Chapter 09
01:30:20.289 : en:Chapter 10
Скріншоти




За укр. звукову доріжку подяка п. RobinHud
Особиста подяка пану denixx за надану матеріальну допомогу на підтримку цього і майбутніх релізів.

Джерело:


Срібний реліз (на рейтинг впливає 50% завантаженого)
 Трекер:    Зареєстрований   

Завантажити / скачати фільм українською



відео для новачків



 Зареєстрований:   2018-06-30 05:39
 Розмір:   8.88 GB 
 Оцінка фільму:   9.6/10 (Голосів: 13)
   
respect14 
VIP


З нами з: 26.01.11
Востаннє: 27.01.21
Повідомлень: 595

2018-06-30 19:09  
Виправте "Ельвірі не ХВАТАЄ всього 50 тисяч"
Anonymous 







2018-06-30 19:17  
respect14
done

Triconex 
Новенький


З нами з: 27.11.17
Востаннє: 27.01.21
Повідомлень: 5

2021-01-13 17:36  
Це класичний шедевр 10/10 як на мене.
fl_fl 
Відео Гуртом - фільмокрай
Відео Гуртом - фільмокрай


З нами з: 26.05.09
Востаннє: 28.01.21
Повідомлень: 3365

2021-01-13 17:43  
Тут два голоси. Наталія Ярошенко та Дмитро Завадський.
Ваш часовий пояс: GMT + 2 Години

Нова тема   Відповісти