Леон / Леон-кілер (Режисерська версія) / Leon / Leon: The Professional (Director's Cut) (1994) 1080p H.265 3хUkr/Eng | Sub Ukr/Eng

Нові коментарі

Нова тема   Відповісти
Автор Повідомлення
ukr_anonymous 
Попереджень: 1
Попереджень: 1 


З нами з: 17.04.18
Востаннє: 18.04.19
Повідомлень: 234

2018-06-30 01:34  
Леон / Леон-кілер (Режисерська версія) / Leon / Leon: The Professional (Director's Cut) (1994) 1080p H.265 3хUkr/Eng | Sub Ukr/Eng

Леон / Леон-кілер (Режисерська версія) / Leon / Leon: The Professional (Director's Cut) (1994) 1080p H.265 3хUkr/Eng | Sub Ukr/Eng


Жанр: кримінальний, драма, трилер
Країна: США, Франція



Кінокомпанія: Gaumont, Les Films du Dauphin
Режисер: Люк Бессон / Luc Besson
Актори: Жан Рено / Jean Reno, Ґері Олдман / Gary Oldman, Наталі Портман / Natalie Portman, Денні Айєлло / Danny Aiello, Пітер Еппел / Peter Appel, Віллі Он Блуд / Willi One Blood, Дон Кріч / Don Creech, Кейт А. Ґласко / Keith A. Glascoe, Рендольф Скотт / Randolph Scott, Майкл Бадалуччо / Michael Badalucco, Еллен Ґрін / Ellen Greene, Елізабет Ррґен / Elizabeth Regen, Карл Сі. Матусовіч / Carl J. Matusovich, Френк Сенґер / Frank Senger, Луціус Вейт Черокі / Lucius Wyatt Cherokee

Сюжет:
Професійний вбивця Леон, що не знає пощади і жалості, знайомиться з своєю чарівною сусідкою Матільдою, сім'ю якій розстрілюють поліцейські, замішані в торгівлі наркотиками. Завдяки цьому знайомству він вперше переживає почуття любові, але... яке коротке життя професійного вбивці.


Тривалість: 02:12:53
Якість:
Відео:
кодек: H.265 (HEVC)
розмір кадру: 1920 х 816
бітрейт: 5 060 кб/с
бітова глибина: 10 біт
Увага! Перед завантаженням переконайтесь, що ваш пристрій відтворення (та/або ПЗ) підтримує H.265 (HEVC)

Аудіо # 1:
мова: українська (Повне озвучення)
переклад: багатоголосий закадровий | Так Треба Продакшн на замовлення
кодек: 2.0
бітрейт: 192 кб/с

Аудіо # 2:
мова: українська (Неповне озвучення)
переклад: багатоголосий закадровий
кодек: 5.1
бітрейт: 384 кб/с

Аудіо # 3: ,
мова: українська (Неповне озвучення)
переклад: багатоголосий закадровий
кодек: 5.1
бітрейт: 384 кб/с

Аудіо # 4:
мова: англійська
переклад: оригінал
кодек: 5.1
бітрейт: 384 кб/с

Субтитри # 1-2:
мова: українська (Forced на місця без перекладу, Full)
тип: програмні (м'які)
формат: *.srt

Субтитри # 3:
мова: англійська
тип: програмні (м'які)
формат: *.srt
Info
General
Unique ID : 264482028174533156122662022028989735981 (0xC6F962C2913575C169483AD17392A42D)
Complete name : E:\video\Léon (1994) (International Cut) 1080p H.265 [3xUKR_ENG].
Format :
Format version : Version 4 / Version 2
File size : 5.95 GiB
Duration : 2 h 12 min
Overall bit rate : 6 407 kb/s
Encoded date : UTC 2018-06-17 10:27:55
Writing application : v22.0.0 ('At The End Of The World') 64-bit
Writing library : libebml v1.3.5 + v1.4.8
Cover : Yes
Attachments : Cover.jpg

Video
ID : 1
Format : HEVC
Format/Info : High Efficiency Video Coding
Format profile : Main [email protected]@Main
Codec ID : V_MPEGH/ISO/HEVC
Duration : 2 h 12 min
Bit rate : 5 060 kb/s
Width : 1 920 pixels
Height : 816 pixels
Display aspect ratio : 2.35:1
Frame rate mode : Constant
Frame rate : 23.976 (24000/1001) FPS
Color space : YUV
Chroma subsampling : 4:2:0
Bit depth : 10 bits
Bits/(Pixel*Frame) : 0.135
Stream size : 4.70 GiB (79%)
Writing library : x265 2.7+336-07defe235cde:[Windows][clang 7.0.0][64 bit] 10bit
Encoding settings : cpuid=1049583 / frame-threads=5 / numa-pools=4 / wpp / no-pmode / no-pme / no-psnr / no-ssim / log-level=3 / input-csp=1 / input-res=1920x816 / interlace=0 / total-frames=0 / level-idc=51 / high-tier=1 / uhd-bd=0 / ref=3 / allow-non-conformance / no-repeat-headers / annexb / no-aud / no-hrd / info / hash=0 / no-temporal-layers / open-gop / min-keyint=24 / keyint=240 / gop-lookahead=0 / bframes=3 / b-adapt=0 / b-pyramid / bframe-bias=0 / rc-lookahead=5 / lookahead-slices=5 / scenecut=0 / radl=0 / no-intra-refresh / ctu=64 / min-cu-size=8 / no-rect / no-amp / max-tu-size=32 / tu-inter-depth=1 / tu-intra-depth=1 / limit-tu=0 / rdoq-level=0 / dynamic-rd=0.00 / no-ssim-rd / signhide / no-tskip / nr-intra=0 / nr-inter=0 / no-constrained-intra / strong-intra-smoothing / max-merge=2 / limit-refs=3 / no-limit-modes / me=3 / subme=3 / merange=57 / temporal-mvp / no-weightp / no-weightb / no-analyze-src-pics / deblock=-2:-2 / sao / no-sao-non-deblock / rd=3 / no-early-skip / rskip / no-fast-intra / no-tskip-fast / no-cu-lossless / no-b-intra / no-splitrd-skip / rdpenalty=0 / psy-rd=2.00 / psy-rdoq=0.00 / no-rd-refine / no-lossless / cbqpoffs=0 / crqpoffs=0 / rc=cbr / bitrate=5100 / qcomp=0.60 / qpstep=4 / stats-write=0 / stats-read=0 / vbv-maxrate=5100 / vbv-bufsize=3642 / vbv-init=0.9 / ipratio=1.40 / pbratio=1.30 / aq-mode=1 / aq-strength=0.00 / cutree / zone-count=0 / no-strict-cbr / qg-size=32 / no-rc-grain / qpmax=69 / qpmin=0 / no-const-vbv / sar=1 / overscan=0 / videoformat=5 / range=0 / colorprim=1 / transfer=14 / colormatrix=1 / chromaloc=0 / display-window=0 / max-cll=0,0 / min-luma=0 / max-luma=1023 / log2-max-poc-lsb=8 / vui-timing-info / vui-hrd-info / slices=1 / no-opt-qp-pps / no-opt-ref-list-length-pps / no-multi-pass-opt-rps / scenecut-bias=0.05 / no-opt-cu-delta-qp / no-aq-motion / no-hdr / no-hdr-opt / no-dhdr10-opt / no-idr-recovery-sei / analysis-reuse-level=5 / scale-factor=0 / refine-intra=0 / refine-inter=0 / refine-mv=0 / no-limit-sao / ctu-info=0 / no-lowpass-dct / refine-mv-type=0 / copy-pic=1 / max-ausize-factor=1.0 / no-dynamic-refine / no-single-sei
Language : English
Default : Yes
Forced : No
Color range : Limited
Color primaries : BT.709
Transfer characteristics : BT.2020 (10-bit)
Matrix coefficients : BT.709

Audio #1
ID : 2
Format : AC-3
Format/Info : Audio Coding 3
Codec ID : A_AC3
Duration : 2 h 12 min
Bit rate mode : Constant
Bit rate : 192 kb/s
Channel(s) : 2 channels
Channel positions : Front: L R
Sampling rate : 48.0 kHz
Frame rate : 31.250 FPS (1536 SPF)
Bit depth : 16 bits
Compression mode : Lossy
Delay relative to video : 1 s 0 ms
Stream size : 182 MiB (3%)
Language : Ukrainian
Service kind : Complete Main
Default : No
Forced : No

Audio #2
ID : 3
Format : AC-3
Format/Info : Audio Coding 3
Codec ID : A_AC3
Duration : 2 h 12 min
Bit rate mode : Constant
Bit rate : 384 kb/s
Channel(s) : 6 channels
Channel positions : Front: L C R, Side: L R, LFE
Sampling rate : 48.0 kHz
Frame rate : 31.250 FPS (1536 SPF)
Bit depth : 16 bits
Compression mode : Lossy
Delay relative to video : 1 s 0 ms
Stream size : 365 MiB (6%)
Title : 5.1 @ 384 kbps - Двоголосий закадровий | Запис з СТБ | Зведення звуку _oles
Language : Ukrainian
Service kind : Complete Main
Default : Yes
Forced : Yes

Audio #3
ID : 4
Format : AC-3
Format/Info : Audio Coding 3
Codec ID : A_AC3
Duration : 2 h 12 min
Bit rate mode : Constant
Bit rate : 384 kb/s
Channel(s) : 6 channels
Channel positions : Front: L C R, Side: L R, LFE
Sampling rate : 48.0 kHz
Frame rate : 31.250 FPS (1536 SPF)
Bit depth : 16 bits
Compression mode : Lossy
Delay relative to video : 1 s 0 ms
Stream size : 365 MiB (6%)
Title : 5.1 @ 384 kbps - Двоголосий закадровий | Запис з 1+1 | Зведення звуку _oles
Language : Ukrainian
Service kind : Complete Main
Default : No
Forced : No

Audio #4
ID : 5
Format : AC-3
Format/Info : Audio Coding 3
Codec ID : A_AC3
Duration : 2 h 12 min
Bit rate mode : Constant
Bit rate : 384 kb/s
Channel(s) : 6 channels
Channel positions : Front: L C R, Side: L R, LFE
Sampling rate : 48.0 kHz
Frame rate : 31.250 FPS (1536 SPF)
Bit depth : 16 bits
Compression mode : Lossy
Delay relative to video : 1 s 0 ms
Stream size : 365 MiB (6%)
Title : Original
Language : English
Service kind : Complete Main
Default : No
Forced : No

Text #1
ID : 6
Format : UTF-8
Codec ID : S_TEXT/UTF8
Codec ID/Info : UTF-8 Plain Text
Duration : 1 h 21 min
Bit rate : 20 b/s
Count of elements : 234
Stream size : 12.0 KiB (0%)
Title : Форсовані на місця без перекладу
Language : Ukrainian
Default : Yes
Forced : Yes

Text #2
ID : 7
Format : UTF-8
Codec ID : S_TEXT/UTF8
Codec ID/Info : UTF-8 Plain Text
Duration : 2 h 6 min
Bit rate : 60 b/s
Count of elements : 1028
Stream size : 56.5 KiB (0%)
Title : Ліцензія DVD. Обробка субтитрів: _oles, редагування: w2958l
Language : Ukrainian
Default : No
Forced : No

Text #3
ID : 8
Format : UTF-8
Codec ID : S_TEXT/UTF8
Codec ID/Info : UTF-8 Plain Text
Duration : 2 h 8 min
Bit rate : 36 b/s
Count of elements : 1121
Stream size : 34.5 KiB (0%)
Language : English
Default : No
Forced : No

Menu
00:00:00.000 : :Start
00:10:01.559 : :Léon camp; Mathilda
00:15:21.420 : :Léon's Apartment
00:17:00.477 : :Morning
00:22:33.060 : :Before the Storm
00:24:20.584 : :Search camp; Destroy
00:30:15.146 : :"Please Open the Door"
00:33:55.074 : :Getting Better Acquainted
00:42:41.141 : :Training Begins
00:43:43.203 : :Hotel National
00:45:00.489 : :Room 410
00:48:07.676 : :Rifle Practice
00:51:21.036 : :Training Continues
00:55:28.908 : :Water Fight
01:01:53.251 : :Back to Work
01:02:57.899 : :The Receptionist
01:03:52.245 : :Going for a Walk
01:05:35.514 : :Exactly What Happened
01:07:45.019 : :Léon Returns
01:08:38.948 : :Evicted
01:28:28.761 : :Tailing Stansfield
01:30:02.855 : :Men's Room
01:34:27.161 : :A Pro Hit
01:36:55.309 : Wide grin.E.a. Building
01:47:40.954 : :Alpha Team Removal
01:51:36.106 : :Window Warning
01:53:13.244 : :Checking Out
02:01:25.194 : :"This Is From Mathilda"
Скріншоти



Джерело:
Особиста оцінка: 10 - без зайвих вагань рекомендую всім!


Срібний реліз (на рейтинг впливає 50% завантаженого)
 Трекер:    Зареєстрований   

Завантажити / скачати фільм українською



відео для новачків



 Зареєстрований:   2018-06-30 01:34
 Розмір:   5.95 GB 
 Оцінка фільму:   10/10 (Голосів: 14)
   
geroyasfalta 
Свій


З нами з: 20.06.11
Востаннє: 21.04.19
Повідомлень: 79

2019-02-23 11:04  
СТБ-двоголоска Я.Чорненький Н.Касторф
1+1-двоголоска М.Жонін Ю.Перенчук

Ваш часовий пояс: GMT + 2 Години

Нова тема   Відповісти