Національна музична премія «Золота жар-птиця». Червона доріжка (19.05.2018) 1080p

Нові коментарі

Нова тема   Відповісти
Останній раз роздавалося sergiyko.5 (2018-08-02)
Автор Повідомлення
sergiyko.5 
Забанено
Забанено


З нами з: 25.02.16
Востаннє: 29.10.20
Повідомлень: 3650

2018-06-29 21:03  
Національна музична премія «Золота жар-птиця». Червона доріжка (19.05.2018) 1080p


Національна музична премія «Золота жар-птиця». Червона доріжка (19.05.2018) 1080p

Жанр: Музичне Шоу
Країна: Україна
Телеканал: М2

Опис:
19 травня о 18:00 у НПМ «Україна» найтоповіші артисти України влаштують грандіозне шоу та покажуть найяскравіші музичні номери. Alyosha, NK| Настя Каменських, MONATIK, TAYANNA, Христина Соловiй , Олександр Пономарьов, «СКАЙ», «Без обмежень», TamerlanAlena, КADNAY, «Время и Стекло», Mozgi, Michelle Andrade, Ірина Федишин, The Hardkiss, Sonya Kay та Наталка Карпа виступлять на церемонії нагородження національної музичної премії “Золота жар-птиця” від телеканалу М2 та компанії «Таврійські Ігри».

Премія “Золота жар-птиця” була заснована 22 роки тому компанією “Таврійськи Ігри” і проходила в рамках музичного фестивалю. Завдяки неупередженості експертного журі, авторитету у суспільстві премія набула статусу найвагомішої недержавної нагороди в галузі музики та масових видовищ того часу.


Тривалість: 01:55:15
Якість:

Відео: кодек: розмір кадру: 1920 х 1080 бітрейт: 3200 кб/с
Аудіо: мова: українська переклад: оригінал кодек: 2.0 бітрейт: 128 кб/с
Про файл:
General
Unique ID : 247069585049022431411147909751717686150 (0xB9DFDF083AC8BE331E543434BCDEEB86)
Complete name : F:\Content\Videomusic\Національна музична премія «Золота жар-птиця».Червона доріжка.19-05-2018.1080p..
Format :
Format version : Version 4 / Version 2
File size : 2.71 GiB
Duration : 1 h 55 min
Overall bit rate : 3 370 kb/s
Movie name : Національна музична премія «Золота жар-птиця». Червона доріжка - 19.05.2018
Encoded date : UTC 2018-06-29 18:56:11
Writing application : v24.0.0 ('Beyond The Pale') 64-bit
Writing library : libebml v1.3.6 + v1.4.9

Video
ID : 1
Format : AVC
Format/Info : Advanced Video Codec
Format profile : [email protected]
Format settings : CABAC / 3 Ref Frames
Format settings, CABAC : Yes
Format settings, ReFrames : 3 frames
Codec ID : V_MPEG4/ISO/AVC
Duration : 1 h 55 min
Bit rate : 3 243 kb/s
Width : 1 920 pixels
Height : 1 080 pixels
Display aspect ratio : 16:9
Frame rate mode : Constant
Frame rate : 25.000 FPS
Color space : YUV
Chroma subsampling : 4:2:0
Bit depth : 8 bits
Scan type : Progressive
Bits/(Pixel*Frame) : 0.063
Stream size : 2.61 GiB (96%)
Language : Ukrainian
Default : Yes
Forced : No
Color range : Limited
Color primaries : BT.709
Transfer characteristics : BT.709
Matrix coefficients : BT.709

Audio
ID : 2
Format :
Format/Info : Advanced Audio Codec
Format profile : LC
Codec ID : A_AAC-2
Duration : 1 h 55 min
Bit rate : 126 kb/s
Channel(s) : 2 channels
Channel positions : Front: L R
Sampling rate : 44.1 kHz
Frame rate : 43.066 FPS (1024 SPF)
Compression mode : Lossy
Delay relative to video : 82 ms
Stream size : 104 MiB (4%)
Language : Ukrainian
Default : Yes
Forced : No
Скріншоти:


 Трекер:    Зареєстрований   

Завантажити / скачати передачу українською



відео для новачків



 Зареєстрований:   2018-06-29 21:03
 Розмір:   2.71 GB 
 Оцінка передачі:   3/10 (Голосів: 5)
   
Ваш часовий пояс: GMT + 2 Години

Нова тема   Відповісти