Операція Ентеббе / Entebbe (2018) mini 1080p H.265 Ukr/Eng | Sub Eng

Нові коментарі

Нова тема   Відповісти
Автор Повідомлення
ukr_anonymous 
Попереджень: 1
Попереджень: 1 


З нами з: 17.04.18
Востаннє: 20.10.18
Повідомлень: 222

2018-06-29 16:01  
Операція Ентеббе / Entebbe (2018) mini 1080p H.265 Ukr/Eng | Sub Eng

Операція Ентеббе / Entebbe (2018) mini 1080p H.265 Ukr/Eng | Sub Eng


Жанр: драма, кримінал, трилер
Країна: Велика Британія, США



Кінокомпанія: Participant Media, Pellikola, Working Title Films
Режисер: Жозе Паділья
Актори: Розамунд Пайк, Даніель Брюль, Едді Марсан, Бронтіс Ходоровскі, Нонсо Анозі, Бен Шнетцер, Марк Іванір, Дені Меноше, Пітер Салліван, Анхель Бунані

Сюжет:
Політичний трилер, знятий за реальними подіями. У 1976 році було захоплено літак компанії “Ейр Франс”, який здійснював рейс з Тель-Авіва до Парижа. Щоб врятувати пасажирів, було проведено одну з найвідчайдушніших операцій в історії. У центрі сюжету – німецькі активісти Брігітта Кульман (Розамунд Пайк) та Вільфрід Бьозе (Деніель Брюль), які разом з Народним фронтом звільнення Палестини, викрадають літак. Озброєні терористи направляють літак в місто Ентеббе, Уганда, та вимагають 5 мільйонів доларів і звільнення палестинських в’язнів в Ізраїлі. У разі відмови вони погрожують почати вбивати заручників Прем’єр-міністр Ізраїлю Іцхак Рабин має від терористів лише тиждень на роздуми. Йому треба вирішити: йти на поступки і переговори чи спробувати організувати, здається, неможливу спробу порятунку. Коли час на роздуми та дипломатію спливає, приймають рішення рятувати заручників. Але учасники цієї місії не мають права на помилку.


Тривалість: 01:47:00
Якість:
Відео:
кодек: H.265 (HEVC)
розмір кадру: 1920 х 804
бітрейт: 3 749 кб/с
бітова глибина: 10 біт
Увага! Перед завантаженням переконайтесь, що ваш пристрій відтворення (та/або ПЗ) підтримує H.265 (HEVC)

Аудіо # 1:
мова: українська
переклад: професійний дубльований | студія AAA-Sound
кодек: 2.0
бітрейт: 192 кб/с

Аудіо # 2:
мова: англійська
переклад: оригінал
кодек: 5.1
бітрейт: 428 кб/с

Субтитри:
мова: англійська
тип: програмні (м'які)
формат: *.srt
Info
General
Unique ID : 155147546466483221847104084009855800437 (0x74B8549F2C84EA7326F35E52993CD475)
Complete name : E:\video\Entebbe (2018) 1080p H.265 [UKR_ENG].
Format :
Format version : Version 4 / Version 2
File size : 3.27 GiB
Duration : 1 h 47 min
Overall bit rate : 4 373 kb/s
Movie name : Entebbe
Encoded date : UTC 2018-06-29 12:39:14
Writing application : v22.0.0 ('At The End Of The World') 64-bit
Writing library : libebml v1.3.5 + v1.4.8
Cover : Yes
Attachments : cover

Video
ID : 1
Format : HEVC
Format/Info : High Efficiency Video Coding
Format profile : Main [email protected]@Main
Codec ID : V_MPEGH/ISO/HEVC
Duration : 1 h 47 min
Bit rate : 3 749 kb/s
Width : 1 920 pixels
Height : 804 pixels
Display aspect ratio : 2.40:1
Frame rate mode : Constant
Frame rate : 23.976 (24000/1001) FPS
Color space : YUV
Chroma subsampling : 4:2:0
Bit depth : 10 bits
Bits/(Pixel*Frame) : 0.101
Stream size : 2.80 GiB (86%)
Writing library : x265 2.8+19-bcdc610cf5f0:[Windows][GCC 7.3.0][64 bit] 10bit
Encoding settings : cpuid=1111039 / frame-threads=3 / numa-pools=8 / wpp / no-pmode / no-pme / no-psnr / no-ssim / log-level=2 / input-csp=1 / input-res=1920x804 / interlace=0 / total-frames=153937 / level-idc=0 / high-tier=1 / uhd-bd=0 / ref=4 / no-allow-non-conformance / no-repeat-headers / annexb / no-aud / no-hrd / info / hash=0 / no-temporal-layers / open-gop / min-keyint=23 / keyint=250 / gop-lookahead=0 / bframes=4 / b-adapt=2 / b-pyramid / bframe-bias=0 / rc-lookahead=25 / lookahead-slices=4 / scenecut=40 / radl=0 / no-intra-refresh / ctu=64 / min-cu-size=8 / rect / no-amp / max-tu-size=32 / tu-inter-depth=1 / tu-intra-depth=1 / limit-tu=0 / rdoq-level=2 / dynamic-rd=0.00 / no-ssim-rd / signhide / no-tskip / nr-intra=0 / nr-inter=0 / no-constrained-intra / strong-intra-smoothing / max-merge=3 / limit-refs=3 / limit-modes / me=3 / subme=3 / merange=57 / temporal-mvp / weightp / no-weightb / no-analyze-src-pics / deblock=0:0 / sao / no-sao-non-deblock / rd=4 / no-early-skip / rskip / no-fast-intra / no-tskip-fast / no-cu-lossless / no-b-intra / no-splitrd-skip / rdpenalty=0 / psy-rd=2.00 / psy-rdoq=1.00 / no-rd-refine / no-lossless / cbqpoffs=0 / crqpoffs=0 / rc=abr / bitrate=3750 / qcomp=0.60 / qpstep=4 / stats-write=0 / stats-read=2 / cplxblur=20.0 / qblur=0.5 / ipratio=1.40 / pbratio=1.30 / aq-mode=3 / aq-strength=1.00 / cutree / zone-count=0 / no-strict-cbr / qg-size=32 / no-rc-grain / qpmax=69 / qpmin=0 / no-const-vbv / sar=0 / overscan=0 / videoformat=5 / range=0 / colorprim=2 / transfer=2 / colormatrix=2 / chromaloc=0 / display-window=0 / max-cll=0,0 / min-luma=0 / max-luma=1023 / log2-max-poc-lsb=8 / vui-timing-info / vui-hrd-info / slices=1 / no-opt-qp-pps / no-opt-ref-list-length-pps / multi-pass-opt-rps / scenecut-bias=0.05 / no-opt-cu-delta-qp / aq-motion / no-hdr / no-hdr-opt / no-dhdr10-opt / no-idr-recovery-sei / analysis-reuse-level=5 / scale-factor=0 / refine-intra=0 / refine-inter=0 / refine-mv=0 / no-limit-sao / ctu-info=0 / no-lowpass-dct / refine-mv-type=0 / copy-pic=1 / max-ausize-factor=1.0 / no-dynamic-refine / no-single-sei
Default : Yes
Forced : No

Audio #1
ID : 2
Format : AC-3
Format/Info : Audio Coding 3
Codec ID : A_AC3
Duration : 1 h 46 min
Bit rate mode : Constant
Bit rate : 192 kb/s
Channel(s) : 2 channels
Channel positions : Front: L R
Sampling rate : 48.0 kHz
Frame rate : 31.250 FPS (1536 SPF)
Bit depth : 16 bits
Compression mode : Lossy
Stream size : 147 MiB (4%)
Title : 2.0 @ 192 kbps
Language : Ukrainian
Service kind : Complete Main
Default : Yes
Forced : Yes

Audio #2
ID : 3
Format :
Format/Info : Advanced Audio Codec
Format profile : LC
Codec ID : A_AAC-2
Duration : 1 h 47 min
Bit rate : 428 kb/s
Channel(s) : 6 channels
Channel positions : Front: L C R, Side: L R, LFE
Sampling rate : 48.0 kHz
Frame rate : 46.875 FPS (1024 SPF)
Compression mode : Lossy
Delay relative to video : 20 ms
Stream size : 328 MiB (10%)
Title : 5.1 @ 428 kbps
Language : English
Default : No
Forced : No

Text
ID : 4
Format : UTF-8
Codec ID : S_TEXT/UTF8
Codec ID/Info : UTF-8 Plain Text
Duration : 1 h 42 min
Bit rate : 44 b/s
Count of elements : 1126
Stream size : 33.5 KiB (0%)
Language : English
Default : No
Forced : No

Menu
00:00:00.000 : en:Chapter 01
00:02:32.569 : en:Chapter 02
00:06:17.668 : en:Chapter 03
00:12:00.261 : en:Chapter 04
00:19:00.430 : en:Chapter 05
00:24:11.575 : en:Chapter 06
00:28:10.605 : en:Chapter 07
00:32:43.419 : en:Chapter 08
00:38:10.413 : en:Chapter 09
00:44:32.544 : en:Chapter 10
00:49:31.468 : en:Chapter 11
00:53:06.016 : en:Chapter 12
00:58:22.707 : en:Chapter 13
01:04:04.549 : en:Chapter 14
01:08:07.625 : en:Chapter 15
01:16:13.986 : en:Chapter 16
01:21:11.616 : en:Chapter 17
01:28:57.999 : en:Chapter 18
01:37:31.846 : en:Chapter 19
01:39:09.902 : en:Chapter 20
Скріншоти



[url=https://img.hurtom.com/image/Pvy][/u
Джерело:
Особиста оцінка: 0 - не дивився


 Трекер:    Зареєстрований   

Завантажити / скачати фільм українською



відео для новачків



 Зареєстрований:   2018-06-29 16:01
 Розмір:   3.27 GB 
 Оцінка фільму:   9/10 (Голосів: 3)
   
Інші релізи
   Операція Ентеббе / Entebbe (2018) AVC Ukr/Eng | Sub Eng 11FrYkT  43 / 0   1.52 GB   2018-06-26 22:49 
   Операція Ентеббе / Entebbe (2018) Remux 1080p Ukr/Eng | Sub Eng staf777  19 / 0   29.29 GB   2018-06-26 11:38 
   Операція Ентеббе / Entebbe (2018) 1080p Ukr/Eng | Sub Eng staf777  30 / 0   10.16 GB   2018-06-25 22:39 
   Операція Ентеббе / Entebbe (2018) 720p Ukr/Eng | Sub Eng 11FrYkT  27 / 0   4.21 GB   2018-06-25 21:55 
   Операція Ентеббе / Entebbe (2018) Electroz  40 / 0   1.46 GB   2018-06-25 21:36 
SpaceAndrzej 
Новенький


З нами з: 26.06.12
Востаннє: 19.10.18
Повідомлень: 4

2018-07-04 00:54  
Фільм тримає в напрузі, не для широкого загалу, вартий уваги поціновувачам фільмів на реальних подіях.
Ваш часовий пояс: GMT + 2 Години

Нова тема   Відповісти