Кейт та Лео / Kate & Leopold (2001) 1080p 2xUkr/Eng | Sub Eng

Нові коментарі

Нова тема   Відповісти
Автор Повідомлення
Anonymous 







2018-06-29 14:50  
Кейт та Лео / Kate & Leopold (2001) 1080p 2xUkr/Eng | sub Eng

Кейт та Лео / Kate & Leopold (2001) 1080p 2xUkr/Eng | Sub Eng


Жанр: мелодрама, фентезі, комедія
Країна: США



Кінокомпанія: MIRAMAX
Режисер: Джеймс Менголд
Актори: Мег Раян, Г'ю Джекман, Лів Шрайбер, Бреккін Мейєр, Наташа Лайон, Бредлі Вітфорд, Пекстон Вайтхед, Сполдінг Грей, Джош Стемберг, Метью Суссман, Шарлотта Аянна, Філіп Боско

Сюжет:
Крізь діру в часі Лео, герцог Олбанський, потрапляє в майбутнє, а точніше - в сучасний Нью-Йорк. Привабливий джентльмен XIX сторіччя зненацька виявляється в стрімкому світі, де успішно завойовує висоти ділова жінка - Кейт Маккей. Неймовірне сталося, і вони зустрілися! Тепер Лео не можна залишати без нагляду ні на хвилину! У всякому разі, до тих пір, поки він не зможе повернутися назад...


Тривалість: 01:58:22
Якість: 1080p
Відео:
кодек:
розмір кадру: 1912х1080
бітрейт: 8722 кб/с

Аудіо # 1:
мова: українська
переклад: двоголосий закадровий |
кодек: 2.0
бітрейт: 192 кб/с

Аудіо # 2:
мова: українська
переклад: двоголосий закадровий | (з 5.1)
кодек: 2.0
бітрейт: 192 кб/с

Аудіо # 3:
мова: англійська
переклад: оригінал
бітрейт: 448 кб/с

Субтитри:
мова: англійська
тип: програмні (м'які)
формат: *.srt
Info
General
Unique ID : 174480937828259502181344320707254000746 (0x8343CE68F1B66EEA80A6EC504F239C6A)
Format :
Format version : Version 4 / Version 2
File size : 7.90 GiB
Duration : 1 h 58 min
Overall bit rate : 9 553 kb/s
Encoded date : UTC 2018-06-29 11:39:19
Writing application : v6.1.0 ('Old Devil') built on Mar 4 2013 09:10:42
Writing library : libebml v1.3.0 + v1.4.0

Video
ID : 1
Format : AVC
Format/Info : Advanced Video Codec
Format profile : [email protected]
Format settings, CABAC : Yes
Format settings, ReFrames : 4 frames
Codec ID : V_MPEG4/ISO/AVC
Duration : 1 h 58 min
Bit rate : 8 722 kb/s
Width : 1 912 pixels
Height : 1 080 pixels
Display aspect ratio : 16:9
Frame rate mode : Constant
Frame rate : 23.976 (24000/1001) FPS
Color space : YUV
Chroma subsampling : 4:2:0
Bit depth : 8 bits
Scan type : Progressive
Bits/(Pixel*Frame) : 0.176
Stream size : 7.05 GiB (89%)
Writing library : core 138 r2358kMod 9e941d1
Encoding settings : cabac=1 / ref=4 / deblock=1:-3:-3 / analyse=0x3:0x113 / me=umh / subme=10 / psy=1 / fade_compensate=0.00 / psy_rd=0.90:0.15 / mixed_ref=1 / me_range=48 / chroma_me=1 / trellis=2 / 8x8dct=1 / cqm=0 / deadzone=21,11 / fast_pskip=0 / chroma_qp_offset=-3 / threads=6 / lookahead_threads=1 / sliced_threads=0 / nr=0 / decimate=1 / interlaced=0 / bluray_compat=0 / constrained_intra=0 / bframes=8 / b_pyramid=2 / b_adapt=2 / b_bias=0 / direct=3 / weightb=1 / open_gop=0 / weightp=2 / keyint=250 / keyint_min=23 / scenecut=40 / intra_refresh=0 / rc_lookahead=40 / rc=2pass / mbtree=0 / bitrate=8722 / ratetol=1.0 / qcomp=0.75 / qpmin=0 / qpmax=69 / qpstep=4 / cplxblur=20.0 / qblur=0.5 / vbv_maxrate=50000 / vbv_bufsize=62500 / nal_hrd=none / ip_ratio=1.40 / pb_ratio=1.30 / aq=1:0.80
Language : English
Default : Yes
Forced : No
Color range : Limited
Matrix coefficients : BT.709

Audio #1
ID : 2
Format : AC-3
Format/Info : Audio Coding 3
Format settings, Endianness : Big
Codec ID : A_AC3
Duration : 1 h 58 min
Bit rate mode : Constant
Bit rate : 192 kb/s
Channel(s) : 2 channels
Channel positions : Front: L R
Sampling rate : 48.0 kHz
Frame rate : 31.250 FPS (1536 spf)
Bit depth : 16 bits
Compression mode : Lossy
Stream size : 163 MiB (2%)
Title : UKR (Новий)
Language : Ukrainian
Service kind : Complete Main
Default : Yes
Forced : Yes

Audio #2
ID : 3
Format : AC-3
Format/Info : Audio Coding 3
Format settings, Endianness : Big
Codec ID : A_AC3
Duration : 1 h 58 min
Bit rate mode : Constant
Bit rate : 192 kb/s
Channel(s) : 2 channels
Channel positions : Front: L R
Sampling rate : 48.0 kHz
Frame rate : 31.250 FPS (1536 spf)
Bit depth : 16 bits
Compression mode : Lossy
Stream size : 163 MiB (2%)
Title : UKR (1+1)
Language : Ukrainian
Service kind : Complete Main
Default : No
Forced : No

Audio #3
ID : 4
Format : AC-3
Format/Info : Audio Coding 3
Format settings, Endianness : Big
Codec ID : A_AC3
Duration : 1 h 58 min
Bit rate mode : Constant
Bit rate : 448 kb/s
Channel(s) : 6 channels
Channel positions : Front: L C R, Side: L R, LFE
Sampling rate : 48.0 kHz
Frame rate : 31.250 FPS (1536 spf)
Bit depth : 16 bits
Compression mode : Lossy
Stream size : 379 MiB (5%)
Language : English
Service kind : Complete Main
Default : No
Forced : No

Text
ID : 5
Format : UTF-8
Codec ID : S_TEXT/UTF8
Codec ID/Info : UTF-8 Plain Text
Language : English
Default : No
Forced : No

Menu
00:00:00.000 : en:Chapter 1
00:16:56.849 : en:Chapter 2
00:28:41.719 : en:Chapter 3
00:36:26.058 : en:Chapter 4
00:45:45.199 : en:Chapter 5
00:55:44.466 : en:Chapter 6
01:05:06.235 : en:Chapter 7
01:17:07.914 : en:Chapter 8
01:27:27.242 : en:Chapter 9
01:35:46.282 : en:Chapter 10
01:45:05.424 : en:Chapter 11
01:53:39.813 : en:Chapter 12
Скріншоти






За запис з Нового дякую пану Bohdan237, за синхронізацію - п.Arsenfpu
За доріжку від 1+1 дякую п. speedwaykaskad, xslim, dvorsky
За постер дякую пану realnitro
Особиста подяка пану denixx за надану матеріальну допомогу на підтримку цього і майбутніх релізів.
Джерело:


Срібний реліз (на рейтинг впливає 50% завантаженого)
 Трекер:    Зареєстрований   

Завантажити / скачати фільм українською



відео для новачків



 Зареєстрований:   2018-06-29 14:50
 Розмір:   7.9 GB 
 Оцінка фільму:   9.8/10 (Голосів: 17)
   
Ваш часовий пояс: GMT + 2 Години

Нова тема   Відповісти