Мисливець на прибульців / Alien hunter (2003) 1080p Ukr/Eng

Нові коментарі

Нова тема   Відповісти
Останній раз роздавалося drop_plz (2020-09-24)
Автор Повідомлення
Anonymous 







2018-06-29 14:20  
Мисливець на прибульців / Alien hunter (2003) 1080p Ukr/Eng

Мисливець на прибульців / Alien hunter (2003) 1080p Ukr/Eng


Жанр: екшн, фантастика, трилер
Країна: США, Болгарія



Кінокомпанія: Nu Image Films, Millennium Films, Sandstorm Films
Режисер: Рон Краусс
Актори: Джеймс Спейдер, Джанін Езер, Джон Лінч, Ніколай Бінєв, Леслі Стіфенсон

Сюжет:
Давні надії людства збулися! В Антарктиді знаходять таємничий артефакт неземного походження, і тепер стає ясно: ми вже не самотні у Всесвіті. Але разом з надіями випливають і найтемніші страхи - що потрібно чужому об'єкту на нашій планеті? Чи не становить він загрозу цивілізації? На всі ці питання повинні відповісти вчені, серед яких - блискучий криптолог Джулієн Роум. Однак чим далі Роум просувається у своїх дослідженнях, тим виразніше розуміє: можливість космічної загрози ніщо в порівнянні з брудними іграми сильних світу цього, що починаються навколо артефакту, іграми, які можуть поставити людство на межу моторошної катастрофи...


Тривалість: 01:31:48
Якість: 1080p
Відео:
кодек:
розмір кадру: 1920х1020
бітрейт: 10.3 Mb/s

Аудіо # 1:
мова: українська
переклад: двоголосий закадровий |
кодек: 2.0
бітрейт: 192 кб/с

Аудіо # 2:
мова: англійська
переклад: оригінал
кодек: 5.1
бітрейт: 640 кб/с
Info
General
Unique ID : 200185863760342549072901128486416351214 (0x969A651B2CC91806817611209914FFEE)
Format :
Format version : Version 4 / Version 2
File size : 7.14 GiB
Duration : 1 h 31 min
Overall bit rate : 11.1 Mb/s
Encoded date : UTC 2018-06-29 11:12:49 / UTC 2018-06-26T22:08:17Z
Writing application : v6.1.0 ('Old Devil') built on Mar 4 2013 09:10:42
Writing library : libebml v1.3.0 + v1.4.0 / Lavf57.7.2

Video
ID : 1
Format : AVC
Format/Info : Advanced Video Codec
Format profile : [email protected]
Format settings, CABAC : Yes
Format settings, ReFrames : 5 frames
Codec ID : V_MPEG4/ISO/AVC
Duration : 1 h 31 min
Bit rate : 10.3 Mb/s
Width : 1 920 pixels
Height : 1 080 pixels
Display aspect ratio : 16:9
Frame rate mode : Constant
Frame rate : 23.976 (24000/1001) FPS
Color space : YUV
Chroma subsampling : 4:2:0
Bit depth : 8 bits
Scan type : Progressive
Bits/(Pixel*Frame) : 0.207
Stream size : 6.46 GiB (91%)
Writing library : core 142 r2389 956c8d8
Encoding settings : cabac=1 / ref=5 / deblock=1:-2:-2 / analyse=0x3:0x133 / me=umh / subme=9 / psy=1 / psy_rd=1.00:0.25 / mixed_ref=1 / me_range=24 / chroma_me=1 / trellis=2 / 8x8dct=1 / cqm=0 / deadzone=6,6 / fast_pskip=1 / chroma_qp_offset=-4 / threads=12 / lookahead_threads=1 / sliced_threads=0 / nr=0 / decimate=0 / interlaced=0 / bluray_compat=0 / constrained_intra=0 / bframes=5 / b_pyramid=2 / b_adapt=2 / b_bias=0 / direct=3 / weightb=1 / open_gop=0 / weightp=2 / keyint=240 / keyint_min=24 / scenecut=40 / intra_refresh=0 / rc_lookahead=60 / rc=2pass / mbtree=1 / bitrate=10300 / ratetol=1.0 / qcomp=0.80 / qpmin=0 / qpmax=69 / qpstep=4 / cplxblur=20.0 / qblur=0.5 / vbv_maxrate=62500 / vbv_bufsize=78125 / nal_hrd=none / filler=0 / ip_ratio=1.10 / aq=1:0.50
Default : Yes
Forced : No
Color range : Limited
Color primaries : BT.709
Transfer characteristics : BT.709
Matrix coefficients : BT.709

Audio #1
ID : 2
Format : AC-3
Format/Info : Audio Coding 3
Format settings, Endianness : Big
Codec ID : A_AC3
Duration : 1 h 31 min
Bit rate mode : Constant
Bit rate : 192 kb/s
Channel(s) : 2 channels
Channel positions : Front: L R
Sampling rate : 48.0 kHz
Frame rate : 31.250 FPS (1536 spf)
Bit depth : 16 bits
Compression mode : Lossy
Delay relative to video : -5 ms
Stream size : 126 MiB (2%)
Title : UKR (1+1)
Language : Ukrainian
Service kind : Complete Main
Default : Yes
Forced : Yes

Audio #2
ID : 3
Format : AC-3
Format/Info : Audio Coding 3
Format settings, Endianness : Big
Codec ID : A_AC3
Duration : 1 h 31 min
Bit rate mode : Constant
Bit rate : 640 kb/s
Channel(s) : 6 channels
Channel positions : Front: L C R, Side: L R, LFE
Sampling rate : 48.0 kHz
Frame rate : 31.250 FPS (1536 spf)
Bit depth : 16 bits
Compression mode : Lossy
Stream size : 420 MiB (6%)
Title : Surround
Language : English
Service kind : Complete Main
Default : No
Forced : No

Menu
00:00:00.000 : :Chapter 1
00:10:26.960 : :Chapter 2
00:26:48.941 : :Chapter 3
00:36:14.506 : :Chapter 4
00:50:15.346 : :Chapter 5
01:01:11.001 : :Chapter 6
01:11:49.305 : :Chapter 7
01:28:18.960 : :Chapter 8
Скріншоти







Звук від Hulk1987, постер від Givi_мол., за що їм велика подяка.
Особиста подяка пану denixx за надану матеріальну допомогу на підтримку цього і майбутніх релізів.
Джерело:


Срібний реліз (на рейтинг впливає 50% завантаженого)
 Трекер:    Зареєстрований   

Завантажити / скачати фільм українською



відео для новачків



 Зареєстрований:   2018-06-29 14:20
 Розмір:   7.14 GB 
 Оцінка фільму:   9/10 (Голосів: 2)
   
Інші релізи
   Мисливець на прибульців / Alien hunter (2003) Ukr/Eng drop_plz  1 / 0   1.5 GB   2018-06-29 16:46 
   Мисливець на прибульців / Alien hunter (2003) Givi  1 / 0   1.24 GB   2010-11-25 23:28 
Ваш часовий пояс: GMT + 2 Години

Нова тема   Відповісти