Останній кат / Pierrepoint: The Last Hangman (2005) mini 1080p H.265 Ukr/Eng | sub Ukr

Нові коментарі

Нова тема   Відповісти
Автор Повідомлення
ukr_anonymous 
Забанено
Забанено


З нами з: 17.04.18
Востаннє: 17.11.19
Повідомлень: 233

2018-06-29 13:14  
Останній кат / Pierrepoint: The Last Hangman (2005) mini 1080p H.265 Ukr/Eng | sub Ukr

Останній кат / Pierrepoint: The Last Hangman (2005) mini 1080p H.265 Ukr/Eng | sub Ukr


Жанр: драма
Країна: Великобританія



Кінокомпанія: Granada Television
Режисер: Адріан Шерголд (Adrian Shergold)
Актори: Тімоті Сполл (Timothy Spall), Джульєт Стівенсон (Juliet Stevenson), Едді Марсан (Eddie Marsan), Саймон Армстронг (Simon Armstrong)

Сюжет:
Реальна історія життя Альберта Пєррпойнта, знаменитого британського ката, який пішов по стопах свого батька і дядька і став найбільш сумно відомим у цій професії. Страта - брудна робота, але хтось же повинен її виконувати?!

Після роботи Пєррпойнт переодягається й стає нічим не примітним жителем, які поспішають додому до дружини або в паб. Єдине, чого він бажає, то це досягти у своїй справі досконалості... Що відбувається в душі у людини, чия робота вбивати людей? Дивно, але Альберт Пєррпойнт мріяв про таку долю...


Тривалість: 01:35:01
Якість:
Відео:
кодек: H.265 (HEVC)
розмір кадру: 1912 х 1080
бітрейт: 5 002 кб/с
бітова глибина: 10 біт
Увага! Перед завантаженням переконайтесь, що ваш пристрій відтворення (та/або ПЗ) підтримує H.265 (HEVC)

Аудіо # 1:
мова: українська
переклад: багатоголосий закадровий
кодек: 5.1
бітрейт: 448 кб/с

Аудіо # 2:
мова: англійська
переклад: оригінал
кодек: 5.1
бітрейт: 448 кб/с

Субтитри:
мова: українська
тип: програмні (м'які)
формат: *.srt
Info
General
Unique ID : 166847923247409103857061749416556331810 (0x7D85BDBC467068B3CC30334128118322)
Complete name : E:\Video\Pierrepoint The Last Hangman (2005) 1080p H.265 [UKR_ENG].
Format :
Format version : Version 4 / Version 2
File size : 3.92 GiB
Duration : 1 h 35 min
Overall bit rate : 5 900 kb/s
Movie name : Pierrepoint
Encoded date : UTC 2018-06-20 19:02:37
Writing application : v22.0.0 ('At The End Of The World') 64-bit
Writing library : libebml v1.3.5 + v1.4.8
Cover : Yes
Attachments : Cover.jpg

Video
ID : 1
Format : HEVC
Format/Info : High Efficiency Video Coding
Format profile : Main [email protected]@Main
Codec ID : V_MPEGH/ISO/HEVC
Duration : 1 h 35 min
Bit rate : 5 002 kb/s
Width : 1 912 pixels
Height : 1 080 pixels
Display aspect ratio : 16:9
Frame rate mode : Constant
Frame rate : 24.000 FPS
Color space : YUV
Chroma subsampling : 4:2:0
Bit depth : 10 bits
Bits/(Pixel*Frame) : 0.101
Stream size : 3.32 GiB (85%)
Writing library : x265 2.6+31-3712d13c09bf:[Windows][GCC 7.2.0][64 bit] 10bit
Encoding settings : cpuid=1173503 / frame-threads=2 / numa-pools=4 / wpp / no-pmode / no-pme / no-psnr / no-ssim / log-level=2 / input-csp=1 / input-res=1912x1080 / interlace=0 / total-frames=136825 / level-idc=0 / high-tier=1 / uhd-bd=0 / ref=4 / no-allow-non-conformance / no-repeat-headers / annexb / no-aud / no-hrd / info / hash=0 / no-temporal-layers / open-gop / min-keyint=24 / keyint=250 / gop-lookahead=0 / bframes=8 / b-adapt=2 / b-pyramid / bframe-bias=0 / rc-lookahead=80 / lookahead-slices=0 / scenecut=40 / radl=0 / no-intra-refresh / ctu=64 / min-cu-size=8 / no-rect / no-amp / max-tu-size=32 / tu-inter-depth=1 / tu-intra-depth=1 / limit-tu=0 / rdoq-level=2 / dynamic-rd=0.00 / no-ssim-rd / signhide / no-tskip / nr-intra=0 / nr-inter=0 / no-constrained-intra / no-strong-intra-smoothing / max-merge=3 / limit-refs=3 / limit-modes / me=3 / subme=5 / merange=57 / temporal-mvp / weightp / no-weightb / no-analyze-src-pics / deblock=-3:-3 / no-sao / no-sao-non-deblock / rd=4 / no-early-skip / rskip / no-fast-intra / no-tskip-fast / no-cu-lossless / no-b-intra / no-splitrd-skip / rdpenalty=0 / psy-rd=2.00 / psy-rdoq=1.70 / no-rd-refine / no-lossless / cbqpoffs=0 / crqpoffs=0 / rc=abr / bitrate=5000 / qcomp=0.60 / qpstep=4 / stats-write=0 / stats-read=2 / cplxblur=20.0 / qblur=0.5 / ipratio=1.40 / pbratio=1.30 / aq-mode=3 / aq-strength=1.00 / cutree / zone-count=0 / no-strict-cbr / qg-size=32 / no-rc-grain / qpmax=69 / qpmin=0 / no-const-vbv / sar=0 / overscan=0 / videoformat=5 / range=0 / colorprim=2 / transfer=2 / colormatrix=2 / chromaloc=0 / display-window=0 / max-cll=0,0 / min-luma=0 / max-luma=1023 / log2-max-poc-lsb=8 / vui-timing-info / vui-hrd-info / slices=1 / no-opt-qp-pps / no-opt-ref-list-length-pps / no-multi-pass-opt-rps / scenecut-bias=0.05 / no-opt-cu-delta-qp / no-aq-motion / no-hdr / no-hdr-opt / no-dhdr10-opt / analysis-reuse-level=5 / scale-factor=0 / refine-intra=0 / refine-inter=0 / refine-mv=0 / no-limit-sao / ctu-info=0 / no-lowpass-dct / refine-mv-type=0 / copy-pic=1
Default : Yes
Forced : No

Audio #1
ID : 2
Format : AC-3
Format/Info : Audio Coding 3
Codec ID : A_AC3
Duration : 1 h 35 min
Bit rate mode : Constant
Bit rate : 448 kb/s
Channel(s) : 6 channels
Channel positions : Front: L C R, Side: L R, LFE
Sampling rate : 48.0 kHz
Frame rate : 31.250 FPS (1536 SPF)
Bit depth : 16 bits
Compression mode : Lossy
Stream size : 304 MiB (8%)
Title : TBi
Language : Ukrainian
Service kind : Complete Main
Default : Yes
Forced : No

Audio #2
ID : 3
Format : AC-3
Format/Info : Audio Coding 3
Codec ID : A_AC3
Duration : 1 h 35 min
Bit rate mode : Constant
Bit rate : 448 kb/s
Channel(s) : 6 channels
Channel positions : Front: L C R, Side: L R, LFE
Sampling rate : 48.0 kHz
Frame rate : 31.250 FPS (1536 SPF)
Bit depth : 16 bits
Compression mode : Lossy
Stream size : 304 MiB (8%)
Title : Original
Language : English
Service kind : Complete Main
Default : No
Forced : No

Text
ID : 4
Format : UTF-8
Codec ID : S_TEXT/UTF8
Codec ID/Info : UTF-8 Plain Text
Duration : 1 h 30 min
Bit rate : 64 b/s
Count of elements : 832
Stream size : 42.6 KiB (0%)
Language : Ukrainian
Default : Yes
Forced : No

Menu
00:00:00.000 : en:Chapter 01
00:07:12.416 : en:Chapter 02
00:14:58.875 : en:Chapter 03
00:23:49.458 : en:Chapter 04
00:32:07.916 : en:Chapter 05
00:39:33.416 : en:Chapter 06
00:51:03.583 : en:Chapter 07
00:57:28.875 : en:Chapter 08
01:05:08.666 : en:Chapter 09
01:09:45.791 : en:Chapter 10
01:16:53.041 : en:Chapter 11
01:30:38.166 : en:Chapter 12
Скріншоти



[url=https://img.hurtom.com/image/Ppl]
Джерело:
Особиста оцінка: 0 - не дивився


 Трекер:    Зареєстрований   

Завантажити / скачати фільм українською



відео для новачків



 Зареєстрований:   2018-06-29 13:14
 Розмір:   3.92 GB 
 Оцінка фільму:   8.8/10 (Голосів: 6)
   
tomochka4913 
Новенький


З нами з: 27.12.19
Востаннє: 06.02.20
Повідомлень: 3

2019-12-27 23:05  
дякую :-)
Ваш часовий пояс: GMT + 2 Години

Нова тема   Відповісти