1984 / Тисяча дев'ятсот вісімдесят четвертий / Nineteen Eighty-Four (1984) mini 1080p H.265 2xUkr/Eng | Sub Ukr/Eng

Нові коментарі

Нова тема   Відповісти
Автор Повідомлення
ukr_anonymous 
Попереджень: 1
Попереджень: 1 


З нами з: 16.04.18
Востаннє: 17.11.19
Повідомлень: 234

2018-06-29 12:04  
1984 / Тисяча дев'ятсот вісімдесят четвертий / Nineteen Eighty-Four (1984) mini 1080p H.265 2xUkr/Eng | Sub Ukr/Eng

1984 / Тисяча дев'ятсот вісімдесят четвертий / Nineteen Eighty-Four (1984) mini 1080p H.265 2xUkr/Eng | Sub Ukr/Eng


Жанр: драма, мелодрама, фантастика, трилер
Країна: Великобританія



Кінокомпанія: Umbrella-Rosenblum Films Production, Virgin Benelux, Virgin Schallplatten, Virgin
Режисер: Майкл Редфорд
Актори: Джон Герт, Річард Бертон, Сюзанна Гамільтон, Сиріл К'юсак, Ґреґор Фішер, Джеймс Bокер, Андрю Bайлд, Девід Тревена, Девід Канн, Ентоні Бенсон, Пітер Фрей, Роджер Ллойд-Пак, Руперт Бадерман, Корінна Седдон, Марта Парсей

Сюжет:
Фільм знятий за романом Джорджа Орвелла «1984». Член зовнішньої Партії Вінстон Сміт намагається протистояти самій Партії, надзвичайно жорстокому тоталітарному режиму. Він та його кохана Джулія сподіваються на те, що Опір , таємна організація, що протистоїть режиму, або проли (пролетаріат) зуміють знищити Партію хоч в далекому майбутньому. Але їх надії виявляються марними. Опір - вигадка влади, проли ніколи не піднімуть повстання, а будь-якого інакодумця Партія ламає, перетворюючи на такого ж, як вони.


Тривалість: 01:50:32
Якість:
Відео:
кодек: H.265 (HEVC)
розмір кадру: 1920 х 1040
бітрейт: 4 949 кб/с
бітова глибина: 10 біт
Увага! Перед завантаженням переконайтесь, що ваш пристрій відтворення (та/або ПЗ) підтримує H.265 (HEVC)

Аудіо # 1:
мова: українська
переклад: багатоголосий закадровий
кодек: 2.0
бітрейт: 192 кб/с

Аудіо # 2:
мова: українська
переклад: двоголосий закадровий
кодек: 2.0
бітрейт: 192 кб/с

Аудіо # 3:
мова: англійська
переклад: оригінал
кодек: 2.0
бітрейт: 192 кб/с

Субтитри # 1:
мова: українська
тип: програмні (м'які)
формат: *.srt

Субтитри # 2:
мова: англійська
тип: програмні (м'які)
формат: *.srt
Info
General
Unique ID : 278211606140954468901734661680946294901 (0xD14D9B3769DC64BD81BC82E984593075)
Complete name : E:\Video\Nineteen Eighty-Four (1984) 1080p H.265 [2xUKR_ENG].
Format :
Format version : Version 4 / Version 2
File size : 4.27 GiB
Duration : 1 h 50 min
Overall bit rate : 5 526 kb/s
Movie name : 1984
Encoded date : UTC 2018-06-25 19:58:30
Writing application : v22.0.0 ('At The End Of The World') 64-bit
Writing library : libebml v1.3.5 + v1.4.8
Cover : Yes
Attachments : Cover.jpg

Video
ID : 1
Format : HEVC
Format/Info : High Efficiency Video Coding
Format profile : Main [email protected]@Main
Codec ID : V_MPEGH/ISO/HEVC
Duration : 1 h 50 min
Bit rate : 4 949 kb/s
Width : 1 920 pixels
Height : 1 040 pixels
Display aspect ratio : 1.85:1
Frame rate mode : Constant
Frame rate : 23.976 (24000/1001) FPS
Color space : YUV
Chroma subsampling : 4:2:0
Bit depth : 10 bits
Bits/(Pixel*Frame) : 0.103
Stream size : 3.82 GiB (90%)
Writing library : x265 2.8+19-bcdc610cf5f0:[Windows][GCC 7.3.0][64 bit] 10bit
Encoding settings : cpuid=1111039 / frame-threads=3 / numa-pools=8 / wpp / no-pmode / no-pme / no-psnr / no-ssim / log-level=2 / input-csp=1 / input-res=1920x1040 / interlace=0 / total-frames=158987 / level-idc=0 / high-tier=1 / uhd-bd=0 / ref=4 / no-allow-non-conformance / no-repeat-headers / annexb / no-aud / no-hrd / info / hash=0 / no-temporal-layers / open-gop / min-keyint=23 / keyint=250 / gop-lookahead=0 / bframes=4 / b-adapt=2 / b-pyramid / bframe-bias=0 / rc-lookahead=25 / lookahead-slices=4 / scenecut=40 / radl=0 / no-intra-refresh / ctu=64 / min-cu-size=8 / rect / no-amp / max-tu-size=32 / tu-inter-depth=1 / tu-intra-depth=1 / limit-tu=0 / rdoq-level=2 / dynamic-rd=0.00 / no-ssim-rd / signhide / no-tskip / nr-intra=0 / nr-inter=0 / no-constrained-intra / strong-intra-smoothing / max-merge=3 / limit-refs=3 / limit-modes / me=3 / subme=3 / merange=57 / temporal-mvp / weightp / no-weightb / no-analyze-src-pics / deblock=0:0 / sao / no-sao-non-deblock / rd=4 / no-early-skip / rskip / no-fast-intra / no-tskip-fast / no-cu-lossless / no-b-intra / no-splitrd-skip / rdpenalty=0 / psy-rd=2.00 / psy-rdoq=1.00 / no-rd-refine / no-lossless / cbqpoffs=0 / crqpoffs=0 / rc=abr / bitrate=4952 / qcomp=0.60 / qpstep=4 / stats-write=0 / stats-read=2 / cplxblur=20.0 / qblur=0.5 / ipratio=1.40 / pbratio=1.30 / aq-mode=3 / aq-strength=1.00 / cutree / zone-count=0 / no-strict-cbr / qg-size=32 / no-rc-grain / qpmax=69 / qpmin=0 / no-const-vbv / sar=0 / overscan=0 / videoformat=5 / range=0 / colorprim=2 / transfer=2 / colormatrix=2 / chromaloc=0 / display-window=0 / max-cll=0,0 / min-luma=0 / max-luma=1023 / log2-max-poc-lsb=8 / vui-timing-info / vui-hrd-info / slices=1 / no-opt-qp-pps / no-opt-ref-list-length-pps / multi-pass-opt-rps / scenecut-bias=0.05 / no-opt-cu-delta-qp / aq-motion / no-hdr / no-hdr-opt / no-dhdr10-opt / no-idr-recovery-sei / analysis-reuse-level=5 / scale-factor=0 / refine-intra=0 / refine-inter=0 / refine-mv=0 / no-limit-sao / ctu-info=0 / no-lowpass-dct / refine-mv-type=0 / copy-pic=1 / max-ausize-factor=1.0 / no-dynamic-refine / no-single-sei
Default : Yes
Forced : No

Audio #1
ID : 2
Format : AC-3
Format/Info : Audio Coding 3
Codec ID : A_AC3
Duration : 1 h 50 min
Bit rate mode : Constant
Bit rate : 192 kb/s
Channel(s) : 2 channels
Channel positions : Front: L R
Sampling rate : 48.0 kHz
Frame rate : 31.250 FPS (1536 SPF)
Bit depth : 16 bits
Compression mode : Lossy
Delay relative to video : 1 s 500 ms
Stream size : 152 MiB (3%)
Title : AMC
Language : Ukrainian
Service kind : Complete Main
Default : Yes
Forced : No

Audio #2
ID : 3
Format : AC-3
Format/Info : Audio Coding 3
Codec ID : A_AC3
Duration : 1 h 50 min
Bit rate mode : Constant
Bit rate : 192 kb/s
Channel(s) : 2 channels
Channel positions : Front: L R
Sampling rate : 48.0 kHz
Frame rate : 31.250 FPS (1536 SPF)
Bit depth : 16 bits
Compression mode : Lossy
Delay relative to video : 1 s 500 ms
Stream size : 152 MiB (3%)
Title : 1+1
Language : Ukrainian
Service kind : Complete Main
Default : No
Forced : No

Audio #3
ID : 4
Format : AC-3
Format/Info : Audio Coding 3
Codec ID : A_AC3
Duration : 1 h 50 min
Bit rate mode : Constant
Bit rate : 192 kb/s
Channel(s) : 2 channels
Channel positions : Front: L R
Sampling rate : 48.0 kHz
Frame rate : 31.250 FPS (1536 SPF)
Bit depth : 16 bits
Compression mode : Lossy
Delay relative to video : 1 s 500 ms
Stream size : 152 MiB (3%)
Title : Original
Language : English
Service kind : Complete Main
Default : No
Forced : No

Text #1
ID : 5
Format : UTF-8
Codec ID : S_TEXT/UTF8
Codec ID/Info : UTF-8 Plain Text
Duration : 1 h 46 min
Bit rate : 79 b/s
Count of elements : 1097
Stream size : 61.7 KiB (0%)
Language : Ukrainian
Default : Yes
Forced : No

Text #2
ID : 6
Format : UTF-8
Codec ID : S_TEXT/UTF8
Codec ID/Info : UTF-8 Plain Text
Duration : 1 h 46 min
Bit rate : 45 b/s
Count of elements : 1081
Stream size : 35.1 KiB (0%)
Language : English
Default : No
Forced : No

Menu
00:00:00.000 : en:Chapter 01
00:05:59.901 : en:Chapter 02
00:11:37.488 : en:Chapter 03
00:18:15.219 : en:Chapter 04
00:23:46.633 : en:Chapter 05
00:27:05.749 : en:Chapter 06
00:31:23.381 : en:Chapter 07
00:34:07.795 : en:Chapter 08
00:40:13.327 : en:Chapter 09
00:47:31.640 : en:Chapter 10
00:52:28.812 : en:Chapter 11
01:01:13.002 : en:Chapter 12
01:10:32.478 : en:Chapter 13
01:15:05.542 : en:Chapter 14
01:19:49.117 : en:Chapter 15
01:23:15.532 : en:Chapter 16
01:26:29.726 : en:Chapter 17
01:35:33.894 : en:Chapter 18
01:37:12.785 : en:Chapter 19
01:40:40.909 : en:Chapter 20
Скріншоти



[url=https://img.hurtom.com/image/Pp4][
Джерело:
Особиста оцінка: 8 - мені сподобалося


Срібний реліз (на рейтинг впливає 50% завантаженого)
 Трекер:    Зареєстрований   

Завантажити / скачати фільм українською



відео для новачків



 Зареєстрований:   2018-06-29 12:04
 Розмір:   4.27 GB 
 Оцінка фільму:   9.4/10 (Голосів: 7)
   
def-17.2 
Новенький


З нами з: 20.02.15
Востаннє: 05.01.20
Повідомлень: 19

2018-08-28 19:51  
Кіно картина актуальна як ніколи Happy 4+/ 5
Ваш часовий пояс: GMT + 2 Години

Нова тема   Відповісти