Стриптиз / Striptease (1996) 720p Ukr/Eng | Sub Eng

Нові коментарі

Нова тема   Відповісти
Автор Повідомлення
Anonymous 







2018-06-29 09:04  
Стриптиз / Striptease (1996) 720p Ukr/Eng | Sub Eng

Стриптиз / Striptease (1996) 720p Ukr/Eng | Sub Eng
Український постер від п.somnambula:



Жанр: трилер, комедія, кримінальний, еротичний
Країна: США



Кінокомпанія: Castle Rock Entertainment
Режисер: Ендрю Бергман
Актори: Демі Мур, Арманд Ассанте, Вінг Реймс, Роберт Патрік, Пол Гілфойл, Берт Рейнолдс, Джеррі Грейсон, Роберт Стентон...

Сюжет:
Ерін Гран - жінка, яка танцює стриптиз, щоб розв'язати серйозну фінансову проблему. Але все ускладнюється, коли ласолюбний конгресмен втрачає через неї голову. Гроші, шантаж, вбивство - у законодавця в руках багато способів отримати бажане, але проти Ерін він безсилий. Вона оголюється, щоб вижити. Але справжнє викриття загрожує політику...


Тривалість: 01:57:10
Якість:
Відео:
кодек:
розмір кадру: 1280х720
бітрейт: 6255 кб/с

Аудіо # 1:
мова: українська
переклад: двоголосий закадровий |
кодек: 2.0
бітрейт: 192 кб/с
Інформація про озвучення:

Переклад: Наталія Анастасіаті
Літературний редактор: Оксана Батюк
Звукорежисер: Віктор Коляда
Режисер: Станіслав Чернілевський
Текст читали актори: Лариса Руснак та Олександр Ігнатуша
Аудіо # 2:
мова: англійська
переклад: оригінал
кодек: 5.1
бітрейт: 640 кб/с

Субтитри:
мова: англійська
тип: програмні (м'які)
формат: *.srt
Info
General
Unique ID : 227220204538472458321690542657156126873 (0xAAF10503C99DE313B4087CBBECAF9899)
Format :
Format version : Version 4 / Version 2
File size : 5.92 GiB
Duration : 1 h 57 min
Overall bit rate : 7 230 kb/s
Movie name : Striptease (1996)
Encoded date : UTC 2018-06-29 03:45:19
Writing application : v6.1.0 ('Old Devil') built on Mar 4 2013 09:10:42
Writing library : libebml v1.3.0 + v1.4.0

Video
ID : 1
Format : AVC
Format/Info : Advanced Video Codec
Format profile : [email protected]
Format settings, CABAC : Yes
Format settings, ReFrames : 9 frames
Codec ID : V_MPEG4/ISO/AVC
Duration : 1 h 57 min
Bit rate : 6 255 kb/s
Width : 1 280 pixels
Height : 720 pixels
Display aspect ratio : 16:9
Frame rate mode : Constant
Frame rate : 23.976 (24000/1001) FPS
Color space : YUV
Chroma subsampling : 4:2:0
Bit depth : 8 bits
Scan type : Progressive
Bits/(Pixel*Frame) : 0.283
Stream size : 5.12 GiB (87%)
Title : Striptease (1996)
Writing library : core 140 r2377 1ca7bb9
Encoding settings : cabac=1 / ref=9 / deblock=1:-3:-3 / analyse=0x3:0x133 / me=tesa / subme=10 / psy=1 / psy_rd=1.05:0.00 / mixed_ref=1 / me_range=32 / chroma_me=1 / trellis=2 / 8x8dct=1 / cqm=0 / deadzone=21,11 / fast_pskip=0 / chroma_qp_offset=-2 / threads=12 / lookahead_threads=2 / sliced_threads=0 / nr=0 / decimate=1 / interlaced=0 / bluray_compat=0 / constrained_intra=0 / bframes=8 / b_pyramid=2 / b_adapt=2 / b_bias=0 / direct=3 / weightb=1 / open_gop=0 / weightp=2 / keyint=241 / keyint_min=23 / scenecut=40 / intra_refresh=0 / rc_lookahead=60 / rc=crf / mbtree=0 / crf=16.7 / qcomp=0.65 / qpmin=0 / qpmax=69 / qpstep=4 / vbv_maxrate=50000 / vbv_bufsize=62500 / crf_max=0.0 / nal_hrd=none / filler=0 / ip_ratio=1.40 / pb_ratio=1.30 / aq=1:0.80 / zones=161326,168552,q=26
Language : English
Default : Yes
Forced : No

Audio #1
ID : 2
Format : AC-3
Format/Info : Audio Coding 3
Mode : Dolby Digital
Format settings, Endianness : Big
Codec ID : A_AC3
Duration : 1 h 57 min
Bit rate mode : Constant
Bit rate : 192 kb/s
Channel(s) : 2 channels
Channel positions : Front: L R
Sampling rate : 48.0 kHz
Frame rate : 31.250 FPS (1536 spf)
Bit depth : 16 bits
Compression mode : Lossy
Stream size : 161 MiB (3%)
Title : UKR (1+1)
Language : Ukrainian
Service kind : Complete Main
Default : Yes
Forced : Yes

Audio #2
ID : 3
Format : AC-3
Format/Info : Audio Coding 3
Format settings, Endianness : Big
Codec ID : A_AC3
Duration : 1 h 57 min
Bit rate mode : Constant
Bit rate : 640 kb/s
Channel(s) : 6 channels
Channel positions : Front: L C R, Side: L R, LFE
Sampling rate : 48.0 kHz
Frame rate : 31.250 FPS (1536 spf)
Bit depth : 16 bits
Compression mode : Lossy
Stream size : 536 MiB (9%)
Title : 5.1 ch @ 640 kbps
Language : English
Service kind : Complete Main
Default : No
Forced : No

Text
ID : 4
Format : UTF-8
Codec ID : S_TEXT/UTF8
Codec ID/Info : UTF-8 Plain Text
Title : SDH
Language : English
Default : No
Forced : No

Menu
00:00:00.000 : en:Lost Custody
00:01:42.978 : en:Now Appearing (Credits)
00:04:15.672 : en:Backstage at the Eager Beaver
00:07:23.652 : en:Money Can't Buy It
00:09:57.138 : en:Rescuing an Angel
00:12:02.722 : en:Tracking Down Darrell
00:16:40.249 : en:Cold
00:19:28.250 : en:Food Ideas; Worshipper's Promise
00:25:19.643 : en:The Old Dilbeck Charm
00:27:59.553 : en:A Floater; Beach Reunion
00:30:28.243 : en:Putting the Squeeze On
00:35:29.377 : en:Al Questions Erin
00:39:47.844 : en:The Flesh Farm
00:43:05.041 : en:The Angel Rehearses
00:47:02.194 : en:Good and Mediocre News
00:50:10.674 : en:Taking Custody...and a Souvenir
00:54:04.074 : en:Policy Meeting
00:55:57.020 : en:Little Bird
00:59:45.874 : en:Vaseline and Family Values
01:02:59.025 : en:A Tiff With My Ex
01:07:27.585 : en:"Do You Like Dancing?"
01:09:52.855 : en:Whatever It Takes
01:12:35.893 : en:Dilbeck Meets His Angel
01:16:43.307 : en:If I Was Your Girlfriend
01:19:47.741 : en:A Word of Advice
01:22:13.470 : en:Another Dead Snake
01:25:37.424 : en:News Conference; Wolf Morphine
01:28:35.560 : en:Posion Revealed
01:33:15.340 : en:Stoned but Not Confused
01:37:00.148 : en:Time for a Little Drive
01:40:48.417 : en:"This Girl is Nuts"
01:43:15.564 : en:In for a Treat
01:46:26.255 : en:A Strong Homicidal Urge
01:48:54.987 : en:Black, No Sugar
01:52:08.889 : en:End Credits
Скріншоти









За звукозапис з ТБ висловлюю подяку пану Soyer
За готову звукову доріжку дякую панам _oles, igrik09
За українізований постер дякую пану somnambula
Особиста подяка пану denixx за надану матеріальну допомогу на підтримку цього і майбутніх релізів.
Джерело:


Срібний реліз (на рейтинг впливає 50% завантаженого)
 Трекер:    Зареєстрований   

Завантажити / скачати фільм українською



відео для новачків



 Зареєстрований:   2018-06-29 09:04
 Розмір:   5.92 GB 
 Оцінка фільму:   9.3/10 (Голосів: 7)
   
Інші релізи
   Стриптиз / Striptease (1996) AVC Ukr/Eng | Sub Eng staf777  2 / 0   2.42 GB   2018-08-25 15:15 
   Стриптиз / Striptease (1996) Ukr/Eng | Sub Eng igrik09  4 / 0   2.03 GB   2012-05-07 21:46 
0mage0 
VIP


З нами з: 06.10.15
Востаннє: 24.05.19
Повідомлень: 465

2018-10-26 11:47  
Загалом непоганий фільм. Не вперше ми бачимо героїню стриптизерку мати-одиначку, але вперше бачимо такий чудовий колектив-сім'ю у стрип-барі Happy
Ваш часовий пояс: GMT + 2 Години

Нова тема   Відповісти