Мільйонер з нетрів / Мільйонер із нетрів / Slumdog Millionaire (2008) Remux 1080p 3xUkr/Eng | Sub Eng

Нові коментарі

Нова тема   Відповісти
Останній раз роздавалося nykolaiko (2018-10-28)
Автор Повідомлення
IronBee 
Поважний учасник


З нами з: 08.02.10
Востаннє: 23.09.20
Повідомлень: 231

2018-06-28 21:15  
Мільйонер з нетрів / Мільйонер із нетрів / Slumdog Millionaire (2008) Remux 1080p 3xUkr/Eng | Sub Eng

Мільйонер з нетрів / Мільйонер із нетрів / Slumdog Millionaire (2008) Remux 1080p 3xUkr/Eng | Sub Eng


Жанр: драма, мелодрама
Країна: Велика Британія, США



Кінокомпанія: Warner Bros., Celador Films, Film4, Pathé Pictures International
Режисер: Денні Бойл / Danny Boyle, Лавлін Тандан / Loveleen Tandan
Актори: Дев Патель / Dev Patel, Аніл Капур / Anil Kapoor, Саурабх Шукла / Saurabh Shukla, Рахендранат Зутши / Rajendranath Zutshi, Женева Талвар / Jeneva Talwar, Фріда Пінто / Freida Pinto, Ірфан Хан / Irrfan Khan, Ажаруддін Мохаммед Ізмаїл / Azharuddin Mohammed Ismail, Аюш Махеш Кхедекар / Ayush Mahesh Khedekar, Суніл Кумар Агравал / Sunil Kumar Agrawal, Жира Банжара / Jira Banjara, Шейх Валі / Sheikh Wali та інші

Сюжет:
Джамаль Малік, 18-літній сирота з нетрів індійського міста Мумбаї, усього за один крок від перемоги у грі "Хто хоче стати мільйонером?" і виграшу 20 мільйонів рупій. Перервавши гру, його заарештовує поліція за підозрою у шахрайстві. Звідки юнак, який виріс на вулиці, може знати так багато?
Виявляється, відповіді на усі запитання хлопцеві підказало... саме життя.


Тривалість: 02:00:07
Якість: Remux
Відео:
кодек:
розмір кадру: 1920 х 1080
бітрейт: 26,6 Mб/с

Аудіо # 1:
мова: українська | ICTV
переклад: багатоголосий закадровий
кодек: 5.1
бітрейт: 384 кб/с

Аудіо # 2:
мова: українська | 1+1, ТеТ
переклад: професійний дубльований
кодек: 2.0
бітрейт: 192 кб/с

Аудіо # 3:
мова: українська | ua2004
переклад: одноголосий закадровий
кодек: 5.1
бітрейт: 384 кб/с

Аудіо # 4:
мова: англійська
переклад: оригінал
кодек: -HD MA 5.1
бітрейт: 2161 кб/с

Субтитри:
мова: англійська
тип: програмні (м'які)
формат: *.srt
Info
General
Unique ID : 289841121757480330447484694769647790791 (0xDA0D5E9AE0C941C878358A5F9B34AAC7)
Complete name : E:\Films\Slumdog Millionaire (2008) BDremux1080p 3xUkr,Eng sub.Eng[Hurtom].
Format :
Format version : Version 4 / Version 2
File size : 24.9 GiB
Duration : 2 h 0 min
Overall bit rate mode : Variable
Overall bit rate : 29.7 Mb/s
Encoded date : UTC 2018-06-28 17:13:39
Writing application : v24.0.0 ('Beyond The Pale') 64-bit
Writing library : libebml v1.3.6 + v1.4.9

Video
ID : 1
Format : AVC
Format/Info : Advanced Video Codec
Format profile : [email protected]
Format settings : CABAC / 4 Ref Frames
Format settings, CABAC : Yes
Format settings, ReFrames : 4 frames
Codec ID : V_MPEG4/ISO/AVC
Duration : 2 h 0 min
Bit rate mode : Variable
Bit rate : 26.6 Mb/s
Maximum bit rate : 38.0 Mb/s
Width : 1 920 pixels
Height : 1 080 pixels
Display aspect ratio : 16:9
Frame rate mode : Constant
Frame rate : 23.976 (24000/1001) FPS
Standard : NTSC
Color space : YUV
Chroma subsampling : 4:2:0
Bit depth : 8 bits
Scan type : Progressive
Bits/(Pixel*Frame) : 0.535
Stream size : 22.3 GiB (89%)
Default : Yes
Forced : No
Color range : Limited
Color primaries : BT.709
Transfer characteristics : BT.709
Matrix coefficients : BT.709

Audio #1
ID : 2
Format : AC-3
Format/Info : Audio Coding 3
Codec ID : A_AC3
Duration : 2 h 0 min
Bit rate mode : Constant
Bit rate : 384 kb/s
Channel(s) : 6 channels
Channel positions : Front: L C R, Side: L R, LFE
Sampling rate : 48.0 kHz
Frame rate : 31.250 FPS (1536 SPF)
Bit depth : 16 bits
Compression mode : Lossy
Stream size : 330 MiB (1%)
Title : MVO [ICTV] 2.0 192 kbps
Language : Ukrainian
Service kind : Complete Main
Default : Yes
Forced : No

Audio #2
ID : 3
Format : AC-3
Format/Info : Audio Coding 3
Codec ID : A_AC3
Duration : 2 h 0 min
Bit rate mode : Constant
Bit rate : 192 kb/s
Channel(s) : 2 channels
Channel positions : Front: L R
Sampling rate : 48.0 kHz
Frame rate : 31.250 FPS (1536 SPF)
Bit depth : 16 bits
Compression mode : Lossy
Stream size : 165 MiB (1%)
Title : Dub [1+1, TET] 2.0 192 kbps
Language : Ukrainian
Service kind : Complete Main
Default : No
Forced : No

Audio #3
ID : 4
Format : AC-3
Format/Info : Audio Coding 3
Codec ID : A_AC3
Duration : 2 h 0 min
Bit rate mode : Constant
Bit rate : 384 kb/s
Channel(s) : 6 channels
Channel positions : Front: L C R, Side: L R, LFE
Sampling rate : 48.0 kHz
Frame rate : 31.250 FPS (1536 SPF)
Bit depth : 16 bits
Compression mode : Lossy
Stream size : 330 MiB (1%)
Title : AVO [ua2004] 2.0 192 kbps
Language : Ukrainian
Service kind : Complete Main
Default : No
Forced : No

Audio #4
ID : 5
Format :
Format/Info : Digital Theater Systems
Format profile : MA / Core
Codec ID : A_DTS
Duration : 2 h 0 min
Bit rate mode : Variable / Constant
Bit rate : 2 161 kb/s / 1 509 kb/s
Channel(s) : 6 channels
Channel positions : Front: L C R, Side: L R, LFE
Sampling rate : 48.0 kHz
Frame rate : 93.750 FPS (512 SPF)
Bit depth : 16 bits
Compression mode : Lossless / Lossy
Stream size : 1.81 GiB (7%)
Language : English
Default : No
Forced : No

Text
ID : 6
Format : UTF-8
Codec ID : S_TEXT/UTF8
Codec ID/Info : UTF-8 Plain Text
Duration : 1 h 58 min
Bit rate : 33 b/s
Count of elements : 1007
Stream size : 29.3 KiB (0%)
Language : English
Default : Yes
Forced : No
Скріншоти





1) patriot2305 - зведення; Sando7, slavik_v_z, POMEO - запис з ТБ;
2) patriot2305 - зведення; ratbol - запис з ТБ;
3) ua2004
українізовані постери - ТРЕМ, d1mma, DrediS

Джерело: &
Особиста оцінка: 10 - без зайвих вагань рекомендую всім!


Золотий реліз (завантажене не впливає на рейтинг)
 Трекер:    Зареєстрований   

Завантажити / скачати фільм українською



відео для новачків



 Зареєстрований:   2018-06-28 21:15
 Розмір:   24.92 GB 
 Оцінка фільму:   8.9/10 (Голосів: 11)
   
Vovka morkovka 
Свій


З нами з: 24.11.10
Востаннє: 26.07.20
Повідомлень: 75

2018-06-30 10:18  
Дуже хороший фільм! Демонструє усі людські якості! Але для перегляду дуже важкий! 10 з 10!
Ваш часовий пояс: GMT + 2 Години

Нова тема   Відповісти