Казка про того, хто ходив страху вчитися / Von einem, der auszog, das Fürchten zu lernen (2014) 1080p Ukr/Ger

Нові коментарі

Нова тема   Відповісти
Автор Повідомлення
Anonymous 







2018-06-28 14:35  
Казка про того, хто ходив страху вчитися / Von einem, der auszog, das Fürchten zu lernen (2014) 1080p Ukr/Ger

Казка про того, хто ходив страху вчитися / Von einem, der auszog, das Fürchten zu lernen (2014) 1080p Ukr/Ger


Жанр: казка, сімейний, мелодрама
Країна: Німеччина



Кінокомпанія: Bremedia Produktion, Das Erste (ARD), Nordmedia Fonds
Режисер: Тобіаш Віеманн
Актори: Ізольда Діхаук, Тім Олівер Шульц, Хайнер Лаутербах, Рік Каваніан, Мілан Пешель

Сюжет:
Молодший з двох синів гончара, Міхель, теж гончар, і в цьому він, власне, нічим не відрізняється від батька з братом. Але є у нього одна особливість, яка відрізняє його від всіх - він не вміє боятися, він навіть уявити собі не може що таке страх. Брат сміється над ним, батько обурюється, а йому хоч би що. Жив би він собі так і жив, але ось, гуляючи в лісі, він зустрів дуже гарну дівчину, принцесу, в яку відразу закохався. Брат не втратив нагоди знову підколоти молодшого, - мовляв куди тобі, навіть боятися не вмієш. Тепер Міхель твердо вирішив за всяку ціну позбутися цього недоліку і відправився вчитися страху...


Тривалість: 00:58:10
Якість: 1080p
Відео:
кодек:
розмір кадру: 1920x1080
бітрейт: 4 756 кб/с

Аудіо # 1:
мова: українська
переклад: багатоголосий закадровий |
кодек: 2.0
бітрейт: 192 кб/с

Аудіо # 2:
мова: німецька
переклад: оригінал
кодек: 2.0
бітрейт: 192 кб/с
Info
General
Unique ID : 247423637111758411727699133755460471445 (0xBA240F25855A5AA985C6EF299E90CA95)
Format :
Format version : Version 4 / Version 2
File size : 2.13 GiB
Duration : 58 min 10 s
Overall bit rate : 5 244 kb/s
Encoded date : UTC 2018-06-28 11:22:34
Writing application : v6.1.0 ('Old Devil') built on Mar 4 2013 09:10:42
Writing library : libebml v1.3.0 + v1.4.0

Video
ID : 1
Format : AVC
Format/Info : Advanced Video Codec
Format profile : [email protected]
Format settings, CABAC : Yes
Format settings, ReFrames : 4 frames
Codec ID : V_MPEG4/ISO/AVC
Duration : 58 min 10 s
Bit rate : 4 756 kb/s
Width : 1 920 pixels
Height : 1 088 pixels
Original height : 1 080 pixels
Display aspect ratio : 16:9
Original display aspect ratio : 16:9
Frame rate mode : Constant
Frame rate : 25.000 FPS
Color space : YUV
Chroma subsampling : 4:2:0
Bit depth : 8 bits
Scan type : MBAFF
Scan type, store method : Interleaved fields
Scan order : Top Field First
Bits/(Pixel*Frame) : 0.091
Stream size : 1.93 GiB (91%)
Language : German
Default : Yes
Forced : No
Statistics Tags Issue : v8.3.0 ('Over the Horizon') 32bit 2016-11-21 10:37:24 / v6.1.0 ('Old Devil') built on Mar 4 2013 09:10:42 2018-06-28 11:22:34
FromStats_BitRate : 4858308
FromStats_Duration : 00:58:09.960000000
FromStats_FrameCount : 87249
FromStats_StreamSize : 2119412903

Audio #1
ID : 2
Format : AC-3
Format/Info : Audio Coding 3
Format settings, Endianness : Big
Codec ID : A_AC3
Duration : 58 min 10 s
Bit rate mode : Constant
Bit rate : 192 kb/s
Channel(s) : 2 channels
Channel positions : Front: L R
Sampling rate : 48.0 kHz
Frame rate : 31.250 FPS (1536 spf)
Bit depth : 16 bits
Compression mode : Lossy
Delay relative to video : -120 ms
Stream size : 79.9 MiB (4%)
Title : Ukr (TET)
Language : Ukrainian
Service kind : Complete Main
Default : Yes
Forced : Yes

Audio #2
ID : 3
Format : AC-3
Format/Info : Audio Coding 3
Format settings, Endianness : Big
Codec ID : A_AC3
Duration : 58 min 10 s
Bit rate mode : Constant
Bit rate : 192 kb/s
Channel(s) : 2 channels
Channel positions : Front: L R
Sampling rate : 48.0 kHz
Frame rate : 31.250 FPS (1536 spf)
Bit depth : 16 bits
Compression mode : Lossy
Delay relative to video : -120 ms
Stream size : 79.9 MiB (4%)
Title : GER
Language : German
Service kind : Complete Main
Default : No
Forced : No
Statistics Tags Issue : v8.3.0 ('Over the Horizon') 32bit 2016-11-21 10:37:24 / v6.1.0 ('Old Devil') built on Mar 4 2013 09:10:42 2018-06-28 11:22:34
FromStats_BitRate : 192000
FromStats_Duration : 00:58:09.856000000
FromStats_FrameCount : 109058
FromStats_StreamSize : 83756544
Скріншоти






За запис звуку з ТБ дякуємо пану Bohdan237
Особиста подяка пану denixx за надану матеріальну допомогу на підтримку цього і майбутніх релізів.

Джерело:


 Трекер:    Зареєстрований   

Завантажити / скачати фільм українською



відео для новачків



 Зареєстрований:   2018-06-28 14:35
 Розмір:   2.13 GB 
 Оцінка фільму:   10/10 (Голосів: 4)
   
[email protected] 
Свій


З нами з: 03.12.14
Востаннє: 16.09.20
Повідомлень: 86

2018-07-01 19:06  
шо, ніхто не дивився?
Ваш часовий пояс: GMT + 2 Години

Нова тема   Відповісти