Ілля Муромець і Соловей Розбійник (2007) 1080p

Нові коментарі

Нова тема   Відповісти
Автор Повідомлення
sergiyko.5 
VIP


З нами з: 25.02.16
Востаннє: 24.02.20
Повідомлень: 2950

2018-06-28 12:59  
Ілля Муромець і Соловей Розбійник (2007) 1080p


Ілля Муромець і Соловей Розбійник (2007) 1080p

Жанр: дитячий, комедія, пригодницький
Країна: Росія
Кінокомпанія: Кінокомпанія CTB
Режисер: Володимир Торопчин
Актори: Анатолій Петров, Олег Табаков, Сергій Маковецький, Валерій Соловйов, Катерина Гороховська

Сюжет:
Справи у князя йдуть гірше нікуди - з богатирем посварився, а на додачу Соловей Розбійник казну державну вкрав. Що робити? Доведеться з богатирем Іллею миритися і на пошуки викраденої скарбниці вирушати.




Тривалість: 01:19:31
Якість:

Відео: кодек: розмір кадру: 1920 х 1032 бітрейт: 3900 кб/с
Аудіо: мова: українська переклад: професійний дубльований кодек: 2.0 бітрейт: 192 кб/с
Джерело озвучення:
Про файл:
General
Unique ID : 110039769033025659078816577765160903778 (0x52C8E37CF48BD9BA623B7F5E9F3DE462)
Complete name : E:\Ілля Муромець і Соловей Розбійник.2007.1080p..
Format :
Format version : Version 4 / Version 2
File size : 2.27 GiB
Duration : 1 h 19 min
Overall bit rate : 4 094 kb/s
Movie name : Ілля Муромець і Соловей Розбійник 2007 1080p by sergiyko
Encoded date : UTC 2018-07-07 06:05:23
Writing application : v24.0.0 ('Beyond The Pale') 64-bit
Writing library : libebml v1.3.6 + v1.4.9
Cover : Yes
Attachments : cover.jpeg

Video
ID : 1
Format : AVC
Format/Info : Advanced Video Codec
Format profile : [email protected]
Format settings : CABAC / 4 Ref Frames
Format settings, CABAC : Yes
Format settings, ReFrames : 4 frames
Codec ID : V_MPEG4/ISO/AVC
Duration : 1 h 19 min
Bit rate : 3 900 kb/s
Width : 1 920 pixels
Height : 1 032 pixels
Display aspect ratio : 1.85:1
Frame rate mode : Constant
Frame rate : 23.976 FPS
Color space : YUV
Chroma subsampling : 4:2:0
Bit depth : 8 bits
Scan type : Progressive
Bits/(Pixel*Frame) : 0.082
Stream size : 2.17 GiB (95%)
Writing library : core 146 r2538 121396c
Encoding settings : cabac=1 / ref=4 / deblock=1:-1:-1 / analyse=0x3:0x133 / me=umh / subme=11 / psy=1 / psy_rd=0.40:0.00 / mixed_ref=1 / me_range=48 / chroma_me=1 / trellis=2 / 8x8dct=1 / cqm=0 / deadzone=21,11 / fast_pskip=1 / chroma_qp_offset=-2 / threads=24 / lookahead_threads=4 / sliced_threads=0 / nr=0 / decimate=1 / interlaced=0 / bluray_compat=0 / constrained_intra=0 / bframes=8 / b_pyramid=2 / b_adapt=2 / b_bias=0 / direct=3 / weightb=1 / open_gop=0 / weightp=2 / keyint=250 / keyint_min=23 / scenecut=40 / intra_refresh=0 / rc_lookahead=60 / rc=crf / mbtree=1 / crf=16.0 / qcomp=0.70 / qpmin=0 / qpmax=69 / qpstep=4 / ip_ratio=1.40 / aq=1:0.60
Default : Yes
Forced : No

Audio
ID : 2
Format : AC-3
Format/Info : Audio Coding 3
Codec ID : A_AC3
Duration : 1 h 19 min
Bit rate mode : Constant
Bit rate : 192 kb/s
Channel(s) : 2 channels
Channel positions : Front: L R
Sampling rate : 48.0 kHz
Frame rate : 31.250 FPS (1536 SPF)
Bit depth : 16 bits
Compression mode : Lossy
Stream size : 109 MiB (5%)
Title : DUB | Україна
Language : Ukrainian
Service kind : Complete Main
Default : Yes
Forced : No
Скріншоти:


Запис/зведення/ріп: sergiyko


 Трекер:    Зареєстрований   

Завантажити / скачати мультфільм українською



відео для новачків



 Зареєстрований:   2018-07-07 08:10
 Розмір:   2.27 GB 
 Оцінка мультфільму:   4.1/10 (Голосів: 25)
   
11FrYkT 
Модератор відео


З нами з: 20.02.11
Востаннє: 24.02.20
Повідомлень: 6576

2018-06-28 20:46  
sergiyko.5 написано:
Bits/(Pixel*Frame) : 0.085

sergiyko.5 написано:
rc=2pass / mbtree=1 / bitrate=4065

mini на толоці заборонені замініть відео

sergiyko.5 
VIP


З нами з: 25.02.16
Востаннє: 24.02.20
Повідомлень: 2950

2018-07-04 09:31  
11FrYkT,
Виправимо.

strannikosho_trek 
Частий відвідувач


З нами з: 29.05.14
Востаннє: 23.02.20
Повідомлень: 29

2018-07-04 12:48  
Ні розповсюдженню контенту країни-агресора!
11FrYkT 
Модератор відео


З нами з: 20.02.11
Востаннє: 24.02.20
Повідомлень: 6576

2018-07-05 18:12  
sergiyko.5 написано:
subme=9 / psy=1 / psy_rd=0.40:0.00 / mixed_ref=1 / me_range=16 /bframes=3

рекомендую при кодуванні брати кращі параметри

Також скріни замініть

sergiyko.5 
VIP


З нами з: 25.02.16
Востаннє: 24.02.20
Повідомлень: 2950

2018-07-06 08:44  
Замінив відео на більш якісне.
andrrrrr 
Новенький


З нами з: 12.11.11
Востаннє: 23.02.20
Повідомлень: 8

2018-07-06 11:02  
а якщо путіна перекласти українською, ви теж викладете?
andros507 
VIP


З нами з: 15.09.10
Востаннє: 24.02.20
Повідомлень: 317

2018-07-06 12:46  
andrrrrr написано:
а якщо путіна перекласти українською, ви теж викладете?

Уже є

Ваш часовий пояс: GMT + 2 Години

Нова тема   Відповісти