Жандарм і жандарметки / Le Gendarme et les gendarmettes (1982) 720p 3xUkr/Fra | Sub Fra

Нові коментарі

Нова тема   Відповісти
Останній раз роздавалося staf777 (2020-09-23)
Автор Повідомлення
staf777 
Відео Гуртом - підтримка та поширення
Відео Гуртом - підтримка та поширення


З нами з: 16.11.16
Востаннє: 23.09.20
Повідомлень: 4030

2018-06-27 20:29  
Жандарм і жандарметки / Le Gendarme et les gendarmettes (1982) 720p 3xUkr/Fra | Sub Fra

Жандарм і жандарметки / Le Gendarme et les gendarmettes (1982) 720p 3xUkr/Fra | Sub Fra


Жанр: комедія
Країна: Франція, Італія



Кінокомпанія: Société Nouvelle de Cinématographie (SNC)
Режисер: Жан Жиро / Jean Girault
Актори: Луї де Фюнес / Louis de Funès, Жак Франсуа / Jacques François, Мішель Модо / Michel Modo, Мішель Ґалабрю / Michel Galabru та інші

Сюжет:
Нові часи - нові порядки. До жандармерії присилають чотирьох стажерів - дівчат з ногами від шиї. Наші герої у приємному хвилюванні, а їхні дружини - у несамовитості. Сивина в бороду, біс у ребро. Але, як на зло, дівчат викрадають невідомі лиходії. Честь мундира висить на волосині. Пройшовши через ланцюг неймовірних комедійних та фривольних ситуацій, наші герої нейтралізують ціле шпигунське гніздо і визволяють з полону красунь-жандарметок.


Тривалість: 01:38:43
Якість: 720p
Відео:
кодек:
розмір кадру: 1280x720
бітрейт: 5206 кб/с

Аудіо # 1: &
мова: українська
переклад: багатоголосий закадровий
кодек: 2.0
бітрейт: 192 кб/с

Аудіо # 2:
мова: українська
переклад: двоголосий закадровий
кодек: 2.0
бітрейт: 192 кб/с

Аудіо # 3:
мова: українська
переклад: двоголосий закадровий
кодек: 2.0
бітрейт: 192 кб/с

Аудіо # 4:
мова: французька
переклад: оригінал
кодек: 2.0
бітрейт: 192 кб/с

Субтитри :
мова: французька , англійська
тип: програмні (м'які)
формат: *.srt
Info
General
Unique ID : 73385024658409712950786719920253329339 (0x3735710FB50A63096D5BE25E4B845FBB)
Complete name : Z:\Фільми в HD\Комедія\Le Gendarme et les gendarmettes (1982) 720p [3xUKR][FRA][Hurtom].
Format :
Format version : Version 4
File size : 4.12 GiB
Duration : 1 h 38 min
Overall bit rate : 5 977 kb/s
Movie name : Жандарм і жандарметки / Le Gendarme et les gendarmettes (1982) 720p [3xUKR][FRA][Hurtom]
Encoded date : UTC 2020-07-04 14:54:23
Writing application : v46.0.0 ('No Deeper Escape') 64-bit
Writing library : libebml v1.3.10 + v1.5.2
Cover : Yes
Attachments : cover.jpg

Video
ID : 1
Format : AVC
Format/Info : Advanced Video Codec
Format profile : [email protected]
Format settings : CABAC / 8 Ref Frames
Format settings, CABAC : Yes
Format settings, Reference : 8 frames
Codec ID : V_MPEG4/ISO/AVC
Duration : 1 h 38 min
Bit rate : 5 206 kb/s
Width : 1 280 pixels
Height : 720 pixels
Display aspect ratio : 16:9
Frame rate mode : Constant
Frame rate : 24.000 FPS
Color space : YUV
Chroma subsampling : 4:2:0
Bit depth : 8 bits
Scan type : Progressive
Bits/(Pixel*Frame) : 0.235
Stream size : 3.59 GiB (87%)
Title : Le gendarme et les gendarmettes (1982)
Writing library : core 130 r2273 b3065e6
Encoding settings : cabac=1 / ref=8 / deblock=1:-3:-3 / analyse=0x3:0x113 / me=umh / subme=11 / psy=1 / psy_rd=1.00:0.00 / mixed_ref=1 / me_range=32 / chroma_me=1 / trellis=2 / 8x8dct=1 / cqm=0 / deadzone=21,11 / fast_pskip=1 / chroma_qp_offset=-2 / threads=6 / lookahead_threads=1 / sliced_threads=0 / nr=0 / decimate=1 / interlaced=0 / bluray_compat=0 / constrained_intra=0 / bframes=6 / b_pyramid=2 / b_adapt=2 / b_bias=0 / direct=3 / weightb=1 / open_gop=0 / weightp=2 / keyint=240 / keyint_min=24 / scenecut=40 / intra_refresh=0 / rc=2pass / mbtree=0 / bitrate=5206 / ratetol=1.0 / qcomp=0.60 / qpmin=0 / qpmax=69 / qpstep=4 / cplxblur=20.0 / qblur=0.5 / ip_ratio=1.40 / pb_ratio=1.30 / aq=1:1.00
Language : English
Default : Yes
Forced : No
Color range : Limited
Color primaries : BT.709
Transfer characteristics : BT.709
Matrix coefficients : BT.709

Audio #1
ID : 2
Format : AC-3
Format/Info : Audio Coding 3
Commercial name : Dolby Digital
Codec ID : A_AC3
Duration : 1 h 38 min
Bit rate mode : Constant
Bit rate : 192 kb/s
Channel(s) : 2 channels
Channel layout : L R
Sampling rate : 48.0 kHz
Frame rate : 31.250 FPS (1536 SPF)
Compression mode : Lossy
Stream size : 136 MiB (3%)
Title : [UA-MVO-НТН]
Language : Ukrainian
Service kind : Complete Main
Default : Yes
Forced : Yes

Audio #2
ID : 3
Format : AC-3
Format/Info : Audio Coding 3
Commercial name : Dolby Digital
Codec ID : A_AC3
Duration : 1 h 38 min
Bit rate mode : Constant
Bit rate : 192 kb/s
Channel(s) : 2 channels
Channel layout : L R
Sampling rate : 48.0 kHz
Frame rate : 31.250 FPS (1536 SPF)
Compression mode : Lossy
Stream size : 136 MiB (3%)
Title : [UA-DVO-1+1]
Language : Ukrainian
Service kind : Complete Main
Default : No
Forced : No

Audio #3
ID : 4
Format : AC-3
Format/Info : Audio Coding 3
Commercial name : Dolby Digital
Codec ID : A_AC3
Duration : 1 h 38 min
Bit rate mode : Constant
Bit rate : 192 kb/s
Channel(s) : 2 channels
Channel layout : L R
Sampling rate : 48.0 kHz
Frame rate : 31.250 FPS (1536 SPF)
Compression mode : Lossy
Stream size : 136 MiB (3%)
Title : [UA-DVO-НТН]
Language : Ukrainian
Service kind : Complete Main
Default : No
Forced : No

Audio #4
ID : 5
Format : AC-3
Format/Info : Audio Coding 3
Commercial name : Dolby Digital
Codec ID : A_AC3
Duration : 1 h 38 min
Bit rate mode : Constant
Bit rate : 192 kb/s
Channel(s) : 2 channels
Channel layout : L R
Sampling rate : 48.0 kHz
Frame rate : 31.250 FPS (1536 SPF)
Compression mode : Lossy
Stream size : 136 MiB (3%)
Title : Original
Language : French
Service kind : Complete Main
Default : No
Forced : No

Text
ID : 6
Format : UTF-8
Codec ID : S_TEXT/UTF8
Codec ID/Info : UTF-8 Plain Text
Duration : 1 h 34 min
Bit rate : 42 b/s
Count of elements : 736
Stream size : 29.6 KiB (0%)
Language : French
Default : No
Forced : No

Menu
00:00:00.000 : en:Chapter 01
00:09:05.250 : en:Chapter 02
00:19:15.791 : en:Chapter 03
00:29:17.583 : en:Chapter 04
00:34:08.166 : en:Chapter 05
00:41:00.625 : en:Chapter 06
00:49:50.750 : en:Chapter 07
00:58:50.750 : en:Chapter 08
01:06:41.208 : en:Chapter 09
01:14:09.708 : en:Chapter 10
01:25:01.208 : en:Chapter 11
01:34:18.916 : en:Chapter 12
Скріншоти

Звукозапис з ТБ: drakon87, Neytreenor
Виготовлення постеру: hellforces
Зведення звуку: taraskill1, ua2004
, tilda4334
Джерело: &
Особиста оцінка: 10 - без зайвих вагань рекомендую всім!


Срібний реліз (на рейтинг впливає 50% завантаженого)
 Трекер:    Зареєстрований   

Завантажити / скачати фільм українською



відео для новачків



 Зареєстрований:   2020-07-04 18:04
 Розмір:   4.12 GB 
 Оцінка фільму:   8.9/10 (Голосів: 18)
   
bot 
робот


З нами з: 30.09.07
Востаннє: 26.05.05
Повідомлень: 25581

2018-06-27 20:29  
Тему перенесено з Фільми до форуму Анонси релізів


staf777

bot 
робот


З нами з: 30.09.07
Востаннє: 26.05.05
Повідомлень: 25581

2018-06-27 22:45  
Тему перенесено з Анонси релізів до форуму Фільми


staf777

fl_fl 
Відео Гуртом - фільмокрай
Відео Гуртом - фільмокрай


З нами з: 26.05.09
Востаннє: 24.09.20
Повідомлень: 3310

2020-01-06 23:44  
На НТН нова багатоголоска тепер. Можна дістати з архіву, напевно. Там більше 5 голосів.
Djohnnikey 
VIP


З нами з: 01.10.15
Востаннє: 21.09.20
Повідомлень: 414

2020-01-22 23:56  
Трохи псує враження від фільму нелогічність жандарметок, які спочатку не можуть дати відкоша викрадачам та недалекоглядно лізли прямо у пекло, а потім легко з цими ж викрадачами розбираються. До того ж незрозуміло як у жандарми потрапила принцеса іншої країни - у неї ж громадянство не французьке.
Проте якщо на це не звертати уваги, фільм шикарний. Не так часто дивився його, як інші частини, але марку він (фільм), як й він (Де Фюнес) тримають
8 з 10.

tilda4334 
VIP


З нами з: 15.08.14
Востаннє: 23.09.20
Повідомлень: 1060

2020-01-23 00:18  
fl_fl написано:
На НТН нова багатоголоска тепер. Можна дістати з архіву, напевно. Там більше 5 голосів.

Жандарм і жандарметки / Le Gendarme et les gendarmettes (1982) [DVB-T2]
https://mega.nz/#!idpRXYoY!MvYbkjwZpqwx51HDVfgi_0k18a7NuvRrcIWkvovpU-Y

bot 
робот


З нами з: 30.09.07
Востаннє: 26.05.05
Повідомлень: 25581

2020-03-14 20:58  
Тему перенесено з Фільми до форуму Архів відео

Причина перенесення: https://toloka.to/t108820#1162990
11FrYkT

bot 
робот


З нами з: 30.09.07
Востаннє: 26.05.05
Повідомлень: 25581

2020-07-04 15:24  
Тему перенесено з Архів відео до форуму Анонси релізів


igor911

bot 
робот


З нами з: 30.09.07
Востаннє: 26.05.05
Повідомлень: 25581

2020-07-04 18:04  
Тему перенесено з Анонси релізів до форуму Фільми в HD


staf777

Ваш часовий пояс: GMT + 2 Години

Нова тема   Відповісти