Жандарм і жандарметки / Le Gendarme et les gendarmettes (1982) AVC 2xUkr/Fra | Sub Fra/Eng

Нові коментарі

Нова тема   Відповісти
Автор Повідомлення
staf777 
Попереджень: 1
Попереджень: 1 


З нами з: 16.11.16
Востаннє: 23.09.18
Повідомлень: 1521

2018-06-27 20:29  
Жандарм і жандарметки / Le Gendarme et les gendarmettes (1982) AVC 2xUkr/Fra | Sub Fra/Eng

Жандарм і жандарметки / Le Gendarme et les gendarmettes (1982) AVC 2xUkr/Fra | Sub Fra/Eng


Жанр: комедія
Країна: Франція, Італія



Кінокомпанія: Société Nouvelle de Cinématographie (SNC)
Режисер: Жан Жиро / Jean Girault
Актори: Луї де Фюнес / Louis de Funès, Жак Франсуа / Jacques François, Мішель Модо / Michel Modo, Мішель Ґалабрю / Michel Galabru та інші

Сюжет:
Нові часи - нові порядки. До жандармерії присилають чотирьох стажерів - дівчат з ногами від шиї. Наші герої у приємному хвилюванні, а їхні дружини - у несамовитості. Сивина в бороду, біс у ребро. Але, як на зло, дівчат викрадають невідомі лиходії. Честь мундира висить на волосині. Пройшовши через ланцюг неймовірних комедійних та фривольних ситуацій, наші герої нейтралізують ціле шпигунське гніздо і визволяють з полону красунь-жандарметок.


Тривалість: 01:38:43
Якість: AVC
Відео:
кодек:
розмір кадру: 966x576
бітрейт: 3500 кб/с

Аудіо # 1:
мова: українська
переклад: двоголосий закадровий
кодек: 2.0
бітрейт: 192 кб/с

Аудіо # 2: &
мова: українська
переклад: багатоголосий закадровий
кодек: 2.0
бітрейт: 192 кб/с

Аудіо # 3:
мова: французька
переклад: оригінал
кодек: 2.0
бітрейт: 192 кб/с

Субтитри :
мова: французька , англійська
тип: програмні (м'які)
формат: *.srt
Info
General
Unique ID : 236967596010884529176201284826426064007 (0xB2464C84C14DDCB5AB98DEB3D32D3C87)
Complete name : H:\Le Gendarme et les gendarmettes (1982)AVC [2xUkr][Fra][Hurtom].
Format :
Format version : Version 4 / Version 2
File size : 2.81 GiB
Duration : 1 h 38 min
Overall bit rate : 4 079 kb/s
Movie name : Le Gendarme et les gendarmettes (1982)AVC [2xUkr][Fra][Hurtom]
Encoded date : UTC 2018-06-27 19:17:42
Writing application : v9.8.0 ('Kuglblids') 64bit
Writing library : libebml v1.3.4 + v1.4.5
Cover : Yes
Attachments : cover.jpg

Video
ID : 1
Format : AVC
Format/Info : Advanced Video Codec
Format profile : [email protected]
Format settings : CABAC / 10 Ref Frames
Format settings, CABAC : Yes
Format settings, ReFrames : 10 frames
Codec ID : V_MPEG4/ISO/AVC
Duration : 1 h 38 min
Bit rate : 3 500 kb/s
Width : 966 pixels
Height : 576 pixels
Display aspect ratio : 5:3
Frame rate mode : Constant
Frame rate : 24.000 FPS
Color space : YUV
Chroma subsampling : 4:2:0
Bit depth : 8 bits
Scan type : Progressive
Bits/(Pixel*Frame) : 0.262
Stream size : 2.41 GiB (86%)
Title : Le Gendarme et les gendarmettes (1982)
Writing library : core 128 r2216 198a7ea
Encoding settings : cabac=1 / ref=10 / deblock=1:-2:-2 / analyse=0x3:0x113 / me=umh / subme=11 / psy=1 / psy_rd=1.00:0.10 / mixed_ref=1 / me_range=48 / chroma_me=1 / trellis=2 / 8x8dct=1 / cqm=0 / deadzone=21,11 / fast_pskip=0 / chroma_qp_offset=-3 / threads=16 / lookahead_threads=2 / sliced_threads=0 / nr=0 / decimate=0 / interlaced=0 / bluray_compat=0 / constrained_intra=0 / bframes=10 / b_pyramid=2 / b_adapt=2 / b_bias=0 / direct=3 / weightb=1 / open_gop=0 / weightp=2 / keyint=240 / keyint_min=24 / scenecut=40 / intra_refresh=0 / rc_lookahead=40 / rc=2pass / mbtree=0 / bitrate=3500 / ratetol=1.0 / qcomp=0.60 / qpmin=0 / qpmax=69 / qpstep=3 / cplxblur=20.0 / qblur=0.5 / vbv_maxrate=50000 / vbv_bufsize=62500 / nal_hrd=none / ip_ratio=1.40 / pb_ratio=1.30 / aq=1:0.80
Language : French
Default : Yes
Forced : No
Color range : Limited
Matrix coefficients : BT.709

Audio #1
ID : 2
Format : AC-3
Format/Info : Audio Coding 3
Codec ID : A_AC3
Duration : 1 h 38 min
Bit rate mode : Constant
Bit rate : 192 kb/s
Channel(s) : 2 channels
Channel positions : Front: L R
Sampling rate : 48.0 kHz
Frame rate : 31.250 FPS (1536 SPF)
Bit depth : 16 bits
Compression mode : Lossy
Stream size : 136 MiB (5%)
Title : [UA-DVO-1+1]
Language : Ukrainian
Service kind : Complete Main
Default : Yes
Forced : Yes

Audio #2
ID : 3
Format : AC-3
Format/Info : Audio Coding 3
Codec ID : A_AC3
Duration : 1 h 38 min
Bit rate mode : Constant
Bit rate : 192 kb/s
Channel(s) : 2 channels
Channel positions : Front: L R
Sampling rate : 48.0 kHz
Frame rate : 31.250 FPS (1536 SPF)
Bit depth : 16 bits
Compression mode : Lossy
Stream size : 136 MiB (5%)
Title : NTN
Language : Ukrainian
Service kind : Complete Main
Default : No
Forced : No

Audio #3
ID : 4
Format : AC-3
Format/Info : Audio Coding 3
Codec ID : A_AC3
Duration : 1 h 38 min
Bit rate mode : Constant
Bit rate : 192 kb/s
Channel(s) : 2 channels
Channel positions : Front: L R
Sampling rate : 48.0 kHz
Frame rate : 31.250 FPS (1536 SPF)
Bit depth : 16 bits
Compression mode : Lossy
Stream size : 136 MiB (5%)
Title : Original
Language : French
Service kind : Complete Main
Default : No
Forced : No

Text #1
ID : 5
Format : UTF-8
Codec ID : S_TEXT/UTF8
Codec ID/Info : UTF-8 Plain Text
Duration : 1 h 34 min
Bit rate : 42 b/s
Count of elements : 736
Stream size : 29.6 KiB (0%)
Language : French
Default : No
Forced : No

Text #2
ID : 6
Format : UTF-8
Codec ID : S_TEXT/UTF8
Codec ID/Info : UTF-8 Plain Text
Duration : 1 h 34 min
Bit rate : 38 b/s
Count of elements : 736
Stream size : 26.5 KiB (0%)
Language : English
Default : No
Forced : No

Menu
00:00:00.000 : en:Chapter 01
00:09:05.250 : en:Chapter 02
00:19:15.791 : en:Chapter 03
00:29:17.583 : en:Chapter 04
00:34:08.166 : en:Chapter 05
00:41:00.625 : en:Chapter 06
00:49:50.750 : en:Chapter 07
00:58:50.750 : en:Chapter 08
01:06:41.208 : en:Chapter 09
01:14:09.708 : en:Chapter 10
01:25:01.208 : en:Chapter 11
01:34:18.916 : en:Chapter 12
Скріншоти




Звукозапис з ТБ: drakon87, Neytreenor
Виготовлення постеру: hellforces
Зведення звуку: taraskill1, ua2004

Джерело: &
Особиста оцінка: 10 - без зайвих вагань рекомендую всім!


Срібний реліз (на рейтинг впливає 50% завантаженого)
 Трекер:    Зареєстрований   

Завантажити / скачати фільм українською



відео для новачків



 Зареєстрований:   2018-06-27 22:45
 Розмір:   2.81 GB 
 Оцінка фільму:   5.8/10 (Голосів: 4)
   
bot 
робот


З нами з: 30.09.07
Востаннє: 26.05.05
Повідомлень: 19817

2018-06-27 20:29  
Тему перенесено з Фільми до форуму Анонси релізів


staf777

bot 
робот


З нами з: 30.09.07
Востаннє: 26.05.05
Повідомлень: 19817

2018-06-27 22:45  
Тему перенесено з Анонси релізів до форуму Фільми


staf777

Ваш часовий пояс: GMT + 2 Години

Нова тема   Відповісти