Геошторм / Geostorm (2017) 1080p [Open Matte] Ukr/Eng | Sub Eng

Нові коментарі

Нова тема   Відповісти
Автор Повідомлення
boroznaya 
Попереджень: 1
Попереджень: 1 


З нами з: 02.11.12
Востаннє: 21.11.19
Повідомлень: 2943

2018-06-27 18:42  
Геошторм / Geostorm (2017) 1080p [Open Matte] Ukr/Eng | Sub Eng

Геошторм / Geostorm (2017) 1080p [Open Matte] Ukr/Eng | Sub Eng


«Пережити шторм»


Жанр: фантастика, бойовик, трилер
Країна: США



MPAA: PG-13 - Дітям, віком до 13-ти років перегляд небажаний!

Кінокомпанія: Warner Bros., Electric Entertainment, Jerry Bruckheimer Films, Skydance Media
Режисер: Дін Девлін
Актори: Джерард Батлер, Джим Стьорджес, Еббі Корніш, Ед Гарріс, Енді Ґарсіа, Роберт Шиен, Зазі Бітц, Таліта Бейтман, Деніел Ву, Річард Шифф та інші

Сюжет:
Після безпрецедентної серії стихійних лих, що обвалились на нашу планету, лідери світових держав об'єднали зусилля, щоб створити розгалужену мережу орбітальних супутників з контролю над кліматом для запобігання природних катаклізмів. Але щось пішло не так - система, вибудувана для захисту Землі, тепер загрожує їй. Починається гонка наввипередки з часом, в якій треба встигнути виявити реальну загрозу до того, як всесвітній Геошторм зітре з лиця Землі все живе.

Цікаво знати
- Багато сцен фільму були перезняті, коли на останніх етапах роботи в якості продюсера був призначений Джеррі Брукхаймер.
- Деякі сцени знімали в центрі НАСА в Новому Орлеані, штат Луїзіана.
- Спочатку проектом займалася компанія Paramount Pictures, але потім він перейшов у відання компанії Warner Bros.
- Режисерський дебют Діна Девліна в ігровому кінематографі.

Тривалість: 01:49:14
Якість: 1080p | Amazon
Відео:
кодек:
розмір кадру: 1920x1080
бітрейт: 11,2 Мб/с

Аудіо # 1:
мова: українська
переклад: професійний дубльований | студія Postmodern
кодек: 2.0
бітрейт: 192 кб/с
Інформація про дублювання
Переклад: Олег Колесніков
Режисер дубляжу: Павло Скороходько
Звукорежисер: Юрій Антонов
Ролі дублювали: Михайло Жонін, Ірина Ткаленко, Наталя Романько-Кисельова, Вероніка Лук'яненко, Олександр Ігнатуша,
Анна Соболєва, Олег Стальчук, Михайло Федорченко, Дмитро Бузинський та інші.
Фільм дубльовано компанією Postmodern

Аудіо # 2:
мова: англійська
переклад: оригінал
кодек: E- 5.1
бітрейт: 640 кб/с

Субтитри # 1: [Forsed]
мова: українська
тип: програмні (м'які)
формат: *.srt

Субтитри # 2: [Full]
мова: англійська
тип: програмні (м'які)
формат: *.srt

Субтитри # 3: [SDH]
мова: англійська
тип: програмні (м'які)
формат: *.srt
Info
Код:
General[/b]
Unique ID                   : 184867741587803222685862453301542933243 (0x8B143B5F9A15E615858EC374822852FB)
Complete name               : D:\Фільми\Готові релізи\Geostorm (2017) [Ukr, Eng, sub. Ukr, 2xEng] 1080p [Open Matte] [Hurtom] by Zhuk_Mikola.
Format                      :
Format version              : Version 4 / Version 2
File size                   : 9.17 GiB
Duration                    : 1 h 49 min
Overall bit rate            : 12.0 Mb/s
Encoded date                : UTC 2018-06-30 10:43:40
Writing application         : v20.0.0 ('I Am The Sun') 64-bit
Writing library             : libebml v1.3.5 + v1.4.8

[b]Video[/b]
ID                          : 1
Format                      : AVC
Format/Info                 : Advanced Video Codec
Format profile              : [email protected]
Format settings             : CABAC / 4 Ref Frames
Format settings, CABAC      : Yes
Format settings, ReFrames   : 4 frames
Codec ID                    : V_MPEG4/ISO/AVC
Duration                    : 1 h 49 min
Bit rate                    : 11.2 Mb/s
Width                       : 1 920 pixels
Height                      : 1 080 pixels
Display aspect ratio        : 16:9
Frame rate mode             : Constant
Frame rate                  : 23.976 (24000/1001) FPS
Color space                 : YUV
Chroma subsampling          : 4:2:0
Bit depth                   : 8 bits
Scan type                   : Progressive
Bits/(Pixel*Frame)          : 0.225
Stream size                 : 8.53 GiB (93%)
Title                       : 1080p (Amazon)
Language                    : English
Default                     : Yes
Forced                      : No
Color range                 : Limited
Color primaries             : BT.709
Transfer characteristics    : BT.709
Matrix coefficients         : BT.709

[b]Audio #1[/b]
ID                          : 2
Format                      : AC-3
Format/Info                 : Audio Coding 3
Codec ID                    : A_AC3
Duration                    : 1 h 49 min
Bit rate mode               : Constant
Bit rate                    : 192 kb/s
Channel(s)                  : 2 channels
Channel positions           : Front: L R
Sampling rate               : 48.0 kHz
Frame rate                  : 31.250 FPS (1536 SPF)
Bit depth                   : 16 bits
Compression mode            : Lossy
Stream size                 : 150 MiB (2%)
Title                       : Професійний дубльований, студія [b]Postmodern[/b]
Language                    : Ukrainian
Service kind                : Complete Main
Default                     : Yes
Forced                      : No

[b]Audio #2[/b]
ID                          : 3
Format                      : E-AC-3
Format/Info                 : Enhanced Audio Coding 3
Codec ID                    : A_EAC3
Duration                    : 1 h 49 min
Bit rate mode               : Constant
Bit rate                    : 640 kb/s
Channel(s)                  : 6 channels
Channel positions           : Front: L C R, Side: L R, LFE
Sampling rate               : 48.0 kHz
Frame rate                  : 187.500 FPS (256 SPF)
Compression mode            : Lossy
Stream size                 : 500 MiB (5%)
Title                       : E- 5.1 640Kbps (Оригінал - Amazon)
Language                    : English
Service kind                : Complete Main
Default                     : No
Forced                      : No

[b]Text #1[/b]
ID                          : 4
Format                      : UTF-8
Codec ID                    : S_TEXT/UTF8
Codec ID/Info               : UTF-8 Plain Text
Duration                    : 1 h 40 min
Bit rate                    : 5 b/s
Count of elements           : 71
Stream size                 : 3.70 KiB (0%)
Title                       : Форсовані
Language                    : Ukrainian
Default                     : Yes
Forced                      : Yes

[b]Text #2[/b]
ID                          : 5
Format                      : UTF-8
Codec ID                    : S_TEXT/UTF8
Codec ID/Info               : UTF-8 Plain Text
Duration                    : 1 h 40 min
Bit rate                    : 69 b/s
Count of elements           : 1464
Stream size                 : 51.5 KiB (0%)
Title                       : Повні
Language                    : English
Default                     : No
Forced                      : No

[b]Text #3[/b]
ID                          : 6
Format                      : UTF-8
Codec ID                    : S_TEXT/UTF8
Codec ID/Info               : UTF-8 Plain Text
Duration                    : 1 h 40 min
Bit rate                    : 74 b/s
Count of elements           : 1877
Stream size                 : 54.8 KiB (0%)
Title                       : Повні, SDH, Amazon
Language                    : English
Default                     : No
Forced                      : No
Скріншоти
Порівняння з блуреєм
Джерело: &
Особиста оцінка: 8 - мені сподобалося

Не забуваємо подякувати релізеру!


 Трекер:    Зареєстрований   

Завантажити / скачати фільм українською



відео для новачків



 Зареєстрований:   2018-07-01 07:27
 Розмір:   9.17 GB 
 Оцінка фільму:   7.9/10 (Голосів: 11)
   
Інші релізи
   Геошторм / Geostorm (2017) 1080p (60 fps) Ukr/Eng | Sub Eng Drool  0 / 0   13 GB   2018-08-23 13:33 
   Геошторм / Geostorm (2017) Covenant  6 / 0   1.45 GB   2018-01-21 20:04 
   Геошторм / Geostorm (2017) AVC Ukr/Eng | Sub Eng igor911  10 / 0   2.03 GB   2018-01-20 19:34 
   Геошторм / Geostorm (2017) 720p Ukr/Eng | Sub Eng igor911  3 / 0   4.18 GB   2018-01-20 18:26 
   Геошторм / Geostorm (2017) Remux 1080p Ukr/Eng | Sub Eng staf777  6 / 0   25.8 GB   2018-01-20 03:18 
   Геошторм / Geostorm (2017) 1080p Ukr/Eng | Sub Eng Electroz  10 / 0   8.13 GB   2018-01-19 16:52 
MrRyanCooper 
VIP


З нами з: 23.08.12
Востаннє: 19.11.19
Повідомлень: 508

2018-06-29 16:11  
а скажіть, чи 720р буде?
boroznaya 
Попереджень: 1
Попереджень: 1 


З нами з: 02.11.12
Востаннє: 21.11.19
Повідомлень: 2943

2018-06-29 17:15  
MrRyanCooper, від мене ні!
bot 
робот


З нами з: 30.09.07
Востаннє: 26.05.05
Повідомлень: 22499

2018-07-01 07:10  
Тему перенесено з Анонси релізів до форуму Фільми в HD


boroznaya

igor911 
Модератор відео


З нами з: 18.01.08
Востаннє: 21.11.19
Повідомлень: 13665

2018-07-01 09:52  
Додав в опис порівняння з блуреєм.
boroznaya 
Попереджень: 1
Попереджень: 1 


З нами з: 02.11.12
Востаннє: 21.11.19
Повідомлень: 2943

2018-07-01 10:57  
igor911, дуже добре! Спасибі!
takispravi 
Свій


З нами з: 24.10.13
Востаннє: 19.11.19
Повідомлень: 62

2018-08-09 07:31  
я один звернув увагу, що скріни всі як один з фільму "Руйнівник" зі Сталоне??!!!
igor911 
Модератор відео


З нами з: 18.01.08
Востаннє: 21.11.19
Повідомлень: 13665

2018-08-09 08:16  
takispravi, на момент перевірки релізу з скріншотами було все гаразд. Що і навіщо скоїв релізер у своєму акаунті на сервері зображень - невідомо.

Додано через 11 хвилин 9 секунд:

замінив поки знайденими в інтернеті від цього відеоряду.

Ваш часовий пояс: GMT + 2 Години

Нова тема   Відповісти