Напад на 13-у дільницю (Напад на 13-й відділок) / Assault on Precinct 13 (2005) 1080p 3xUkr/Eng | Sub Eng

Нові коментарі

Нова тема   Відповісти
Автор Повідомлення
boroznaya 
Попереджень: 1
Попереджень: 1 


З нами з: 02.11.12
Востаннє: 27.09.20
Повідомлень: 2938

2018-06-27 19:06  
Напад на 13-у дільницю (Напад на 13-й відділок) / Assault on Precinct 13 (2005) 1080p 3xUkr/Eng | Sub Eng

Напад на 13-у дільницю (Напад на 13-й відділок) / Assault on Precinct 13 (2005) 1080p 3xUkr/Eng | Sub Eng


Жанр: бойовик, трилер, драма, кримінальний
Країна: США, Франція



Кінокомпанія: Rogue Pictures, Why Not Productions, Liaison Films
Режисер: Жан-Франсуа Ріше
Актори: Ітан Хоук, Лоуренс Фішборн, Гебріел Бірн, Марія Белло, Дреа де Маттео, Джон Легуізамо, Брайан Деннехі, Джа Рул, Каррі Грем, Аіша Хіндс

Сюжет:
Лічені години залишаються до закриття 13-го поліцейського відділку. Але поки його співробітники на чолі з сержантом Роуніком готуються до зустрічі Нового року, снігова буря розвертає до них спецавтобус зі злочинцями. У їх числі і тільки що захоплений гангстер Меріон Бішоп. Ніщо, здавалося б, не дозволить відволікти поліцейських від святкування: поки озброєні люди в масках не нападають на дільницю. І охоронці закону вимушені об'єднатися зі злочинцями, щоб вижити цієї ночі! ...


Тривалість: 01:48:49
Якість: 1080p
Відео:
кодек:
розмір кадру: 1920x800
бітрейт: 13,6 Мб/с

Аудіо # 1:
мова: українська
переклад: двоголосий закадровий
кодек: 2.0
бітрейт: 192 кб/с
назву перекладено як: "Напад на 13-у дільницю"

Аудіо # 2:
мова: українська
переклад: двоголосий закадровий
кодек: 2.0
бітрейт: 192 кб/с
назву перекладено як: "Напад на 13-й відділок"

Аудіо # 3: ,
мова: українська
переклад: двоголосий закадровий
кодек: 2.0
бітрейт: 192 кб/с
назву перекладено як: "Напад на 13-й відділок"

Аудіо # 4:
мова: англійська
переклад: оригінал
кодек: 5.1
бітрейт: 1510 кб/с

Субтитри:
мова: англійська
тип: програмні (м'які)
формат: *.srt
Інформація про файл
Код:
General
Unique ID                   : 67340515971818680812436097083191611829 (0x32A94FC63385EB8CFBF9CA72076851B5)
Complete name               : D:\Фільми\Готові релізи\Assault on Precinct 13 (2005) [3xUkr, Eng, sub. Eng] 1080p [Hurtom] by Zhuk_Mikola.
Format                      :
Format version              : Version 4 / Version 2
File size                   : 11.9 GiB
Duration                    : 1 h 48 min
Overall bit rate            : 15.7 Mb/s
Encoded date                : UTC 2018-06-30 08:55:50
Writing application         : v20.0.0 ('I Am The Sun') 64-bit
Writing library             : libebml v1.3.5 + v1.4.8

[b]Video[/b]
ID                          : 1
Format                      : AVC
Format/Info                 : Advanced Video Codec
Format profile              : [email protected]
Format settings             : CABAC / 5 Ref Frames
Format settings, CABAC      : Yes
Format settings, ReFrames   : 5 frames
Codec ID                    : V_MPEG4/ISO/AVC
Duration                    : 1 h 48 min
Bit rate                    : 13.6 Mb/s
Width                       : 1 920 pixels
Height                      : 800 pixels
Display aspect ratio        : 2.40:1
Frame rate mode             : Constant
Frame rate                  : 23.976 (24000/1001) FPS
Color space                 : YUV
Chroma subsampling          : 4:2:0
Bit depth                   : 8 bits
Scan type                   : Progressive
Bits/(Pixel*Frame)          : 0.370
Stream size                 : 10.3 GiB (87%)
Writing library             : core 125 r2200kMod 999b753
Encoding settings           : cabac=1 / ref=5 / deblock=1:-3:-3 / analyse=0x3:0x113 / me=umh / subme=11 / psy=1 / fade_compensate=0.00 / psy_rd=1.15:0.00 / mixed_ref=1 / me_range=16 / chroma_me=1 / trellis=2 / 8x8dct=1 / cqm=0 / deadzone=21,11 / fast_pskip=0 / chroma_qp_offset=-2 / threads=6 / lookahead_threads=1 / sliced_threads=0 / nr=0 / decimate=0 / interlaced=0 / bluray_compat=0 / constrained_intra=0 / bframes=8 / b_pyramid=2 / b_adapt=2 / b_bias=0 / direct=3 / weightb=1 / open_gop=0 / weightp=2 / keyint=250 / keyint_min=23 / scenecut=40 / intra_refresh=0 / rc=crf / mbtree=0 / crf=18.0000 / qcomp=0.70 / qpmin=0 / qpmax=69 / qpstep=4 / ip_ratio=1.40 / pb_ratio=1.30 / aq=1:0.75
Language                    : English
Default                     : No
Forced                      : No

[b]Audio #1[/b]
ID                          : 2
Format                      : AC-3
Format/Info                 : Audio Coding 3
Codec ID                    : A_AC3
Duration                    : 1 h 48 min
Bit rate mode               : Constant
Bit rate                    : 192 kb/s
Channel(s)                  : 2 channels
Channel positions           : Front: L R
Sampling rate               : 48.0 kHz
Frame rate                  : 31.250 FPS (1536 SPF)
Bit depth                   : 16 bits
Compression mode            : Lossy
Stream size                 : 149 MiB (1%)
Title                       : Двоголосий закадровий, Новий канал
Language                    : Ukrainian
Service kind                : Complete Main
Default                     : Yes
Forced                      : No

[b]Audio #2[/b]
ID                          : 3
Format                      : AC-3
Format/Info                 : Audio Coding 3
Codec ID                    : A_AC3
Duration                    : 1 h 48 min
Bit rate mode               : Constant
Bit rate                    : 192 kb/s
Channel(s)                  : 2 channels
Channel positions           : Front: L R
Sampling rate               : 48.0 kHz
Frame rate                  : 31.250 FPS (1536 SPF)
Bit depth                   : 16 bits
Compression mode            : Lossy
Stream size                 : 149 MiB (1%)
Title                       : Двоголосий закадровий, НЛО.ТВ
Language                    : Ukrainian
Service kind                : Complete Main
Default                     : No
Forced                      : No

[b]Audio #3[/b]
ID                          : 4
Format                      : AC-3
Format/Info                 : Audio Coding 3
Codec ID                    : A_AC3
Duration                    : 1 h 46 min
Bit rate mode               : Constant
Bit rate                    : 192 kb/s
Channel(s)                  : 2 channels
Channel positions           : Front: L R
Sampling rate               : 48.0 kHz
Frame rate                  : 31.250 FPS (1536 SPF)
Bit depth                   : 16 bits
Compression mode            : Lossy
Stream size                 : 146 MiB (1%)
Title                       : Двоголосий закадровий, 1+1, ICTV
Language                    : Ukrainian
Service kind                : Complete Main
Default                     : No
Forced                      : No

[b]Audio #4[/b]
ID                          : 5
Format                      :
Format/Info                 : Digital Theater Systems
Codec ID                    : A_DTS
Duration                    : 1 h 48 min
Bit rate mode               : Constant
Bit rate                    : 1 509 kb/s
Channel(s)                  : 6 channels
Channel positions           : Front: L C R, Side: L R, LFE
Sampling rate               : 48.0 kHz
Frame rate                  : 93.750 FPS (512 SPF)
Bit depth                   : 24 bits
Compression mode            : Lossy
Stream size                 : 1.15 GiB (10%)
Language                    : English
Default                     : No
Forced                      : No

[b]Text[/b]
ID                          : 6
Format                      : UTF-8
Codec ID                    : S_TEXT/UTF8
Codec ID/Info               : UTF-8 Plain Text
Duration                    : 1 h 41 min
Bit rate                    : 63 b/s
Count of elements           : 1466
Stream size                 : 47.5 KiB (0%)
Title                       : SDH
Language                    : English
Default                     : No
Forced                      : No

Відбитки








За запис з Нового дякую пану 380990387745;
За запис з НЛО дякую пану РОМЕО;
За доріжку від 1+1 дякую панам: BASTERD-94, anonymous;
За постер пану WriterMix;
За синхронізацію аудіодоріжок подяка пану Arsenfpu.


Джерело: &
Особиста оцінка: 8 - мені сподобалося

Не забуваємо подякувати релізеру!


 Трекер:    Зареєстрований   

Завантажити / скачати фільм українською



відео для новачків



 Зареєстрований:   2018-07-01 08:51
 Розмір:   11.93 GB 
 Оцінка фільму:   9.1/10 (Голосів: 17)
   
bot 
робот


З нами з: 30.09.07
Востаннє: 26.05.05
Повідомлень: 25634

2018-07-01 08:51  
Тему перенесено з Анонси релізів до форуму Фільми в HD


boroznaya

tarlviv 
Новенький


З нами з: 03.05.12
Востаннє: 27.09.20
Повідомлень: 21

2018-07-01 21:44  
Фільм офігенний. Переглядав декілька разів. На ці роки такі фільми були в топах перегляду.
rudder1992 
Поважний учасник


З нами з: 26.02.17
Востаннє: 27.09.20
Повідомлень: 182

2020-03-17 00:05  
Фільму уже не багато не мало...15 років!
Свого роду уже може тягнути на класику!)
9 із 10

Ваш часовий пояс: GMT + 2 Години

Нова тема   Відповісти