Тихе місце / A Quiet Place (2018) 1080p Ukr/Eng | Sub Ukr/Eng

Нові коментарі

Нова тема   Відповісти
Автор Повідомлення
staf777 
Попереджень: 1
Попереджень: 1 


З нами з: 16.11.16
Востаннє: 16.12.18
Повідомлень: 1920

2018-06-26 21:47  
Тихе місце / A Quiet Place (2018) 1080p Ukr/Eng | Sub Ukr/Eng

Тихе місце / A Quiet Place (2018) 1080p Ukr/Eng | Sub Ukr/Eng
«Якщо тебе почують - тебе вполюють»

Жанр: драма, жахи, трилер
Країна: США



Кінокомпанія: Platinum Dunes, Sunday Night
Режисер: Джон Красінські
Актори: Емілі Блант, Джон Красінські, Ноа Джуп, Міллісент Сіммондс, Леон Рассом, Кейд Вудворд, Доріс МакКарті

Сюжет:
Життя сім’ї фермерів було повною ідилією, допоки вони не стали мішенню для потойбічного зла. В безжальній грі з темрявою є одне правило – не видавати себе жодним звуком. Щойно тебе почують – ти загинеш.


Тривалість: 01:30:14
Якість: 1080p
Відео:
кодек:
розмір кадру: 1920x800
бітрейт: 16,8 Мб/с

Аудіо # 1:
мова: українська
переклад: професійний дубльований
кодек: 2.0
бітрейт: 192 кб/с

Аудіо # 2:
мова: англійська
переклад: оригінал
кодек: 5.1
бітрейт: 640 кб/с

Субтитри # 1:
мова: українська
тип: програмні (м'які)
формат: *.srt

Субтитри # 2-4:
мова: англійська
тип: програмні (м'які)
формат: *.srt
Info
General
Unique ID : 260700365432198604672491787188317947166 (0xC421106442BC34084C8D5D6F86C7851E)
Complete name : D:\Фільми в HD\Трилер\A Quiet Place (2018) 1080p [UKR_ENG] [Hurtom].
Format :
Format version : Version 4 / Version 2
File size : 11.1 GiB
Duration : 1 h 30 min
Overall bit rate : 17.6 Mb/s
Movie name : A Quiet Place (2018) 1080p [UKR_ENG] [Hurtom]
Encoded date : UTC 2018-07-12 21:03:14
Writing application : v24.0.0 ('Beyond The Pale') 64-bit
Writing library : libebml v1.3.6 + v1.4.9
Cover : Yes
Attachments : Cover.png / cover

Video
ID : 1
Format : AVC
Format/Info : Advanced Video Codec
Format profile : [email protected]
Format settings : CABAC / 5 Ref Frames
Format settings, CABAC : Yes
Format settings, ReFrames : 5 frames
Codec ID : V_MPEG4/ISO/AVC
Duration : 1 h 30 min
Bit rate : 16.8 Mb/s
Width : 1 920 pixels
Height : 800 pixels
Display aspect ratio : 2.40:1
Frame rate mode : Constant
Frame rate : 23.976 (24000/1001) FPS
Color space : YUV
Chroma subsampling : 4:2:0
Bit depth : 8 bits
Scan type : Progressive
Bits/(Pixel*Frame) : 0.455
Stream size : 10.6 GiB (95%)
Title : HDEncode TayTO
Writing library : core 155 r2867+82 a249126 t_mod_Custom_2 [[email protected] X86_64]
Encoding settings : cabac=1 / ref=5 / deblock=1:-3:-3 / analyse=0x3:0x133 / me=umh / subme=11 / psy=1 / fade_compensate=0.00 / psy_rd=1.00:0.00 / mixed_ref=1 / me_range=32 / chroma_me=1 / trellis=2 / 8x8dct=1 / cqm=0 / deadzone=21,11 / fast_pskip=0 / chroma_qp_offset=-2 / threads=12 / lookahead_threads=2 / sliced_threads=0 / nr=0 / decimate=0 / interlaced=0 / bluray_compat=0 / constrained_intra=0 / fgo=0 / bframes=9 / b_pyramid=2 / b_adapt=2 / b_bias=0 / direct=3 / weightb=1 / open_gop=0 / weightp=2 / keyint=250 / keyint_min=23 / scenecut=40 / intra_refresh=0 / rc_lookahead=60 / rc=crf / mbtree=0 / crf=16.7000 / qcomp=0.60 / qpmin=0:0:0 / qpmax=69:69:69 / qpstep=4 / vbv_maxrate=62500 / vbv_bufsize=78125 / crf_max=0.0 / nal_hrd=none / filler=0 / ip_ratio=1.30 / pb_ratio=1.20 / aq=3:0.85 / aq-sensitivity=10.00 / aq-factor=1.00:1.00:1.00 / aq2=0 / aq3=0 / zones=490,520,crf=13/23680,23839,crf=13.8/23975,24155,crf=13.8/63875,64780,crf=14.8/68720,70000,crf=14.8/70879,72092,crf=15.8/79226,79805,crf=15.8/91172,94834,crf=16.3/95328,95697,crf=15.8/102522,102702,crf=13.8/102703,103841,crf=14.8/108590,109505,crf=13.8
Language : English
Default : Yes
Forced : No
Color range : Limited
Matrix coefficients : BT.709

Audio #1
ID : 2
Format : AC-3
Format/Info : Audio Coding 3
Codec ID : A_AC3
Duration : 1 h 30 min
Bit rate mode : Constant
Bit rate : 192 kb/s
Channel(s) : 2 channels
Channel positions : Front: L R
Sampling rate : 48.0 kHz
Frame rate : 31.250 FPS (1536 SPF)
Bit depth : 16 bits
Compression mode : Lossy
Stream size : 124 MiB (1%)
Title : 2.0 @ 192 kbps
Language : Ukrainian
Service kind : Complete Main
Default : Yes
Forced : Yes

Audio #2
ID : 3
Format : AC-3
Format/Info : Audio Coding 3
Codec ID : A_AC3
Duration : 1 h 30 min
Bit rate mode : Constant
Bit rate : 640 kb/s
Channel(s) : 6 channels
Channel positions : Front: L C R, Side: L R, LFE
Sampling rate : 48.0 kHz
Frame rate : 31.250 FPS (1536 SPF)
Bit depth : 16 bits
Compression mode : Lossy
Stream size : 413 MiB (4%)
Title : Original
Language : English
Service kind : Complete Main
Default : No
Forced : No

Text #1
ID : 4
Format : UTF-8
Codec ID : S_TEXT/UTF8
Codec ID/Info : UTF-8 Plain Text
Duration : 1 h 19 min
Bit rate : 9 b/s
Count of elements : 138
Stream size : 5.29 KiB (0%)
Title : Forced
Language : Ukrainian
Default : Yes
Forced : Yes

Text #2
ID : 5
Format : UTF-8
Codec ID : S_TEXT/UTF8
Codec ID/Info : UTF-8 Plain Text
Duration : 1 h 11 min
Bit rate : 3 b/s
Count of elements : 114
Stream size : 1.87 KiB (0%)
Title : Forced
Language : English
Default : No
Forced : No

Text #3
ID : 6
Format : UTF-8
Codec ID : S_TEXT/UTF8
Codec ID/Info : UTF-8 Plain Text
Duration : 1 h 11 min
Bit rate : 5 b/s
Count of elements : 165
Stream size : 2.87 KiB (0%)
Title : Full
Language : English
Default : No
Forced : No

Text #4
ID : 7
Format : UTF-8
Codec ID : S_TEXT/UTF8
Codec ID/Info : UTF-8 Plain Text
Duration : 1 h 22 min
Bit rate : 9 b/s
Count of elements : 340
Stream size : 5.60 KiB (0%)
Title : SDH
Language : English
Default : No
Forced : No

Menu
00:00:00.000 : en:00:00:00.000
00:10:19.160 : en:00:10:19.160
00:14:38.044 : en:00:14:38.044
00:21:52.937 : en:00:21:52.937
00:25:09.717 : en:00:25:09.717
00:31:05.197 : en:00:31:05.197
00:36:23.431 : en:00:36:23.431
00:43:47.333 : en:00:43:47.333
00:47:42.735 : en:00:47:42.735
00:53:48.225 : en:00:53:48.225
01:00:31.461 : en:01:00:31.461
01:05:55.410 : en:01:05:55.410
01:10:57.879 : en:01:10:57.879
01:15:29.150 : en:01:15:29.150
01:23:47.314 : en:01:23:47.314
Скріншоти




Джерело: &
Особиста оцінка: 0 - не дивився


 Трекер:    Зареєстрований   

Завантажити / скачати фільм українською



відео для новачків



 Зареєстрований:   2018-07-12 23:24
 Розмір:   11.09 GB 
 Оцінка фільму:   8.6/10 (Голосів: 24)
   
Інші релізи
11994455 
Поважний учасник


З нами з: 07.04.14
Востаннє: 15.12.18
Повідомлень: 226

2018-06-27 23:16  
Тут на скінах ВЕНУМ якийсь...
ostapstep 
Новенький


З нами з: 30.12.13
Востаннє: 10.12.18
Повідомлень: 3

2018-06-28 16:00  
нарешті!
дуже чекаю на цей фільм!

taurus 
Свій


З нами з: 04.04.11
Востаннє: 09.12.18
Повідомлень: 85

2018-07-01 09:49  
Вже є блу-рей
zoomymba2012 
VIP


З нами з: 08.01.15
Востаннє: 15.12.18
Повідомлень: 531

2018-07-01 13:28  
11994455 написано:
Тут на скінах ВЕНУМ якийсь...

До речі, авторові, краще замінити скріншот.
Бо ці штуки є одною з інтриг фільму.

porto12 
Поважний учасник


З нами з: 28.10.08
Востаннє: 16.12.18
Повідомлень: 184

2018-07-01 15:01  
Бачу в анонсі є тільки англійські субтитри. Мають бути ще українські субтитри на жестову мову. Так було в кінотеатрі.
bot 
робот


З нами з: 30.09.07
Востаннє: 26.05.05
Повідомлень: 20349

2018-07-12 23:24  
Тему перенесено з Анонси релізів до форуму Фільми в HD


staf777

Varlemond 
Частий відвідувач


З нами з: 03.06.12
Востаннє: 15.12.18
Повідомлень: 41

2018-07-13 08:00  
Хоча "жахи" мені не дуже подобаються, але цей фільм класний (хоча і є нелогічні моменти)
V.i.R.u.S 
Свій


З нами з: 19.11.10
Востаннє: 16.12.18
Повідомлень: 85

2018-07-13 22:46  
Фільм класний, так сказати "не стандарт"
Зараз це рідкість 10/10

Kamper 
Частий відвідувач


З нами з: 21.01.13
Востаннє: 15.12.18
Повідомлень: 43

2018-07-14 17:00  
Фільм дуже розчарував, рейтинг вкрай завищений, я б не поставив і 5 з 10. Все, що роблять герої фільму - просто туплять. Цивілізація давно вже винайшла уггі, спортивне взуття з пінополіуретановою підошвою, тощо - ходити босоніж не потрібно. Навішати у лісі динаміків і ганяти цих істот туди-сюди кілометрами? Нє-є-є... нашо?
Дістати батарейки з іграшки, покласти їх під носом у дитини і піти собі, покинувши дитину - чуваку прямо там треба було премію Дарвіна вручити.

agamem 
Новенький


З нами з: 24.05.12
Востаннє: 15.12.18
Повідомлень: 22

2018-07-14 21:01  
IMDd 7.8? facepalm. максимум на 5.
armogun 
Поважний учасник


З нами з: 04.05.13
Востаннє: 15.12.18
Повідомлень: 218

2018-07-15 11:24  
В дублерів вихідний Happy Кіно теж політика. Фільм заточений на абортний скандал. Фільм без логічного завершення . Чому розумні помирають а дурні виживають? Отак наївся гороху, ліг спати і не проснувся. Ставлю тверду 6. Занадто багато ідіотизму
-VJ- 
VIP


З нами з: 01.11.09
Востаннє: 14.12.18
Повідомлень: 652

2018-08-03 00:00  
porto12 написано:
Мають бути ще українські субтитри на жестову мову. Так було в кінотеатрі.


Там і українські варто викинути.
В оригіналі "Вони нас не можуть почути", українські титри - "Вони нас почують".
Українську доріжку теж до біса - там просто весь фільм вирізаний звук акторів, я слухав з англійською, бо там хоч слова чутно.

А фільм чудовий.

Додано через 2 хвилини 29 секунд:

Kamper
Цитата:
Цивілізація давно вже винайшла уггі, спортивне взуття з пінополіуретановою підошвою, тощо


Ти багато в українському сільмазі бачив уггі?
А вони живуть на фермі хріна зна де, а не на Хрещатику з бутіками.

Цитата:
Навішати у лісі динаміків і ганяти цих істот туди-сюди кілометрами?


Вони навішали феєрверків на випадок загрози.
Який сенс ризикувати життям, щоб прокрастися кудись і повісити динамік, якщо після першого ж звуку його знищать?

Здається мені тут туплять зовсім не герої фільму...

-_-В_E_N_D_Е_R-_- 
Забанено
Забанено


З нами з: 11.07.18
Востаннє: 23.08.18
Повідомлень: 530

2018-08-03 00:05  
-VJ-
Вони перекладені з російської
В українській також чути, прислухайся

-VJ- 
VIP


З нами з: 01.11.09
Востаннє: 14.12.18
Повідомлень: 652

2018-08-03 00:38  
-_-В_E_N_D_Е_R-_- написано:
В українській також чути, прислухайся


Слухав, аж очі повилазили
В оригінальній вони в підвалі говорять нормально, в українській - тільки роти розкриваються. Фонова доріжка довколишніх шумів є, голосів - катма.

-_-В_E_N_D_Е_R-_- 
Забанено
Забанено


З нами з: 11.07.18
Востаннє: 23.08.18
Повідомлень: 530

2018-08-03 00:48  
-VJ-
Все нормально там чути

00:06:28;14 - 00:06:44;27
00:29:50;20 - 00:31:04;14
00:35:26;09 - 00:36:25;16
00:37:26;21 - 00:38:32;13
00:39:27;06 - 00:41:41;22
00:49:34;04 - 00:50:04;09
00:57:28;21 - 01:00:31;14
01:13:19;28 - 01:13:21;01

Ваш часовий пояс: GMT + 2 Години

Нова тема   Відповісти