Ворог мій / Enemy Mine (1985) Remux 1080p 2xUkr/Eng | Sub Eng

Нові коментарі

Нова тема   Відповісти
Автор Повідомлення
staf777 
Відео Гуртом - підтримка та поширення
Відео Гуртом - підтримка та поширення


З нами з: 16.11.16
Востаннє: 30.11.20
Повідомлень: 4556

2018-06-26 20:28  
Ворог мій / Enemy Mine (1985) Remux 1080p 2xUkr/Eng | Sub Eng

Ворог мій / Enemy Mine (1985) Remux 1080p 2xUkr/Eng | Sub Eng


Жанр: екшн, пригодницький, драма, фантастика
Країна: США



Кінокомпанія: Twentieth Century Fox Film Corporation
Режисер: Вольфганг Петерсен (Wolfgang Petersen)
Актори: Денніс Квейд (Dennis Quaid), Луї Госсе мол. (Louis Gossett Jr.), Брайон Джеймс (Brion James), Керолін МакКормік (Carolyn McCormick), Річард Маркус (Richard Marcus), Бампер Робінсон (Bumper Robinson), Джим Мапп (Jim Mapp), Ленс Кервін (Lance Kerwin), Скотт Крафт (Scott Kraft), Лу Майклс (Lou Michaels), Енді Джиро (Andy Geer), Генрі Столов (Henry Stolow), Херб Андрес (Herb Andress), Данмар (Danmar), Менді Хаусенбергер (Mandy Hausenberger)

Сюжет:
Під час галактичної війни між людьми і расою рептилій в одній з жорстоких сутичок на околицях гористої планетки в системі подвійної зірки пілот Вілліс Девідж збиває машину чужого, але тут же отримує кілька влучень і виходить із бою. Єдине місце, де можна вижити після падіння - та сама планетка. Але впавши, він виявляє, що збитий ним чужий не загинув. Смертельні вороги виявляються замкнені на планеті, і вибір простий - знищити один одного або укласти перемир'я і спробувати врятуватися. Що виявиться сильніше: бажання жити або ненависть і біль за загиблих?


Тривалість: 01:48:09
Якість: Remux 1080p
Відео:
кодек:
розмір кадру: 1920x1080
бітрейт: 19,9 Mб/с

Аудіо # 1: &
мова: українська
переклад: двоголосий закадровий
кодек: 2.0
бітрейт: 192 кб/с

Аудіо # 2: VHS
мова: українська
переклад: двоголосий закадровий
кодек: 2.0
бітрейт: 192 кб/с

Аудіо # 3:
мова: англійська
переклад: оригінал
кодек: -HD MA 5.1
бітрейт: 2861 кб/с

Субтитри:
мова: англійська
тип: пререндерні
формат: *.pgs
Скріншоти



Info
General
Unique ID : 229281259519411440786920608155026173157 (0xAC7DF6DEF484769BB740303070B1ACE5)
Complete name : G:\Майбутні релізи\Enemy Mine (1985) Remux 1080p [2xUkr][Eng][Sub Eng][Hurtom].
Format :
Format version : Version 4 / Version 2
File size : 17.5 GiB
Duration : 1 h 48 min
Overall bit rate mode : Variable
Overall bit rate : 23.2 Mb/s
Movie name : Enemy Mine (1985) Remux 1080p [2xUkr][Eng][Sub Eng][Hurtom]
Encoded date : UTC 2018-06-27 05:12:27
Writing application : v9.8.0 ('Kuglblids') 64bit
Writing library : libebml v1.3.4 + v1.4.5
Cover : Yes
Attachments : cover.jpg

Video
ID : 1
Format : AVC
Format/Info : Advanced Video Codec
Format profile : [email protected]
Format settings : CABAC / 4 Ref Frames
Format settings, CABAC : Yes
Format settings, ReFrames : 4 frames
Codec ID : V_MPEG4/ISO/AVC
Duration : 1 h 48 min
Bit rate mode : Variable
Bit rate : 19.9 Mb/s
Maximum bit rate : 38.0 Mb/s
Width : 1 920 pixels
Height : 1 080 pixels
Display aspect ratio : 16:9
Frame rate mode : Constant
Frame rate : 23.976 (24000/1001) FPS
Color space : YUV
Chroma subsampling : 4:2:0
Bit depth : 8 bits
Scan type : Progressive
Bits/(Pixel*Frame) : 0.401
Stream size : 15.0 GiB (86%)
Default : Yes
Forced : No

Audio #1
ID : 2
Format : AC-3
Format/Info : Audio Coding 3
Codec ID : A_AC3
Duration : 1 h 48 min
Bit rate mode : Constant
Bit rate : 192 kb/s
Channel(s) : 2 channels
Channel positions : Front: L R
Sampling rate : 48.0 kHz
Frame rate : 31.250 FPS (1536 SPF)
Bit depth : 16 bits
Compression mode : Lossy
Stream size : 149 MiB (1%)
Title : [UA-DVO-2+2]
Language : Ukrainian
Service kind : Complete Main
Default : Yes
Forced : Yes

Audio #2
ID : 3
Format : AC-3
Format/Info : Audio Coding 3
Codec ID : A_AC3
Duration : 1 h 48 min
Bit rate mode : Constant
Bit rate : 192 kb/s
Channel(s) : 2 channels
Channel positions : Front: L R
Sampling rate : 48.0 kHz
Frame rate : 31.250 FPS (1536 SPF)
Bit depth : 16 bits
Compression mode : Lossy
Stream size : 149 MiB (1%)
Title : [UA-DVO-1+1]
Language : Ukrainian
Service kind : Complete Main
Default : No
Forced : No

Audio #3
ID : 4
Format :
Format/Info : Digital Theater Systems
Format profile : MA / Core
Codec ID : A_DTS
Duration : 1 h 48 min
Bit rate mode : Variable / Constant
Bit rate : 2 861 kb/s / 1 509 kb/s
Channel(s) : 4 channels
Channel positions : Front: L C R, Back: C
Sampling rate : 48.0 kHz
Frame rate : 93.750 FPS (512 SPF)
Bit depth : 24 bits
Compression mode : Lossless / Lossy
Stream size : 2.16 GiB (12%)
Language : English
Default : No
Forced : No

Text
ID : 5
Format : PGS
Muxing mode : zlib
Codec ID : S_HDMV/PGS
Codec ID/Info : Picture based subtitle format used on BDs/HD-DVDs
Duration : 1 h 42 min
Bit rate : 16.5 kb/s
Count of elements : 2088
Stream size : 12.0 MiB (0%)
Language : English
Default : No
Forced : No

Menu
00:00:00.000 : en:Chapter 1
00:09:55.595 : en:Chapter 2
00:20:39.947 : en:Chapter 3
00:34:47.376 : en:Chapter 4
00:44:31.835 : en:Chapter 5
00:49:29.299 : en:Chapter 6
01:02:58.733 : en:Chapter 7
01:13:18.477 : en:Chapter 8
01:17:23.597 : en:Chapter 9
01:24:56.591 : en:Chapter 10
01:30:52.321 : en:Chapter 11
01:43:37.878 : en:Chapter 12
Робота зі звуком: _oles
Запис із ТБ: xSlim
Постер: Тирік

Джерело: &
Особиста оцінка: 10 - без зайвих вагань рекомендую всім!


Золотий реліз (завантажене не впливає на рейтинг)
 Трекер:    Зареєстрований   

Завантажити / скачати фільм українською



відео для новачків



 Зареєстрований:   2018-06-27 17:24
 Розмір:   17.52 GB 
 Оцінка фільму:   9.6/10 (Голосів: 28)
   
Інші релізи
   Ворог мій / Enemy Mine (1985) 1080p 2xUkr/Eng | Sub Eng staf777  4 / 0   6.67 GB   2019-02-08 12:28 
   Ворог мій / Enemy Mine (1985) AVC 2xUkr/Eng | Sub Eng staf777  4 / 0   2.52 GB   2018-06-26 20:22 
   Ворог мій / Enemy Mine (1985) 2xUkr/Eng xslim  3 / 0   2.19 GB   2014-02-13 04:43 
   Ворог мій / Enemy Mine (1985) 720p 2xUkr/Eng | Sub Eng BOOGud  1 / 0   5.4 GB   2014-02-12 19:08 
   Ворог мій / Enemy Mine (1985) urij546724  3 / 0   1.51 GB   2010-09-26 20:07 
boroznaya 
Попереджень: 1
Попереджень: 1 


З нами з: 02.11.12
Востаннє: 29.11.20
Повідомлень: 2938

2018-06-27 17:40  
Скільки років минуло, а фільм навіть сьогодні користується надзвичайною популярністю серед глядачів.
Це просто легендарна картина за участю чудових акторів. Спасибі релізеру за відмінну роботу.

O_omarella! 
Поважний учасник


З нами з: 14.06.13
Востаннє: 28.10.20
Повідомлень: 197

2019-10-15 18:33  
Вміли колись знімати фільми...
Ваш часовий пояс: GMT + 2 Години

Нова тема   Відповісти