Ворог мій / Enemy Mine (1985) AVC 2xUkr/Eng | Sub Eng

Нові коментарі

Нова тема   Відповісти
Автор Повідомлення
staf777 
Попереджень: 1
Попереджень: 1 


З нами з: 16.11.16
Востаннє: 24.09.18
Повідомлень: 1521

2018-06-26 20:37  
Ворог мій / Enemy Mine (1985) AVC 2xUkr/Eng | Sub Eng

Ворог мій / Enemy Mine (1985) AVC 2xUkr/Eng | Sub Eng


Жанр: екшн, пригодницький, драма, фантастика
Країна: США



Кінокомпанія: Twentieth Century Fox Film Corporation
Режисер: Вольфганг Петерсен (Wolfgang Petersen)
Актори: Денніс Квейд (Dennis Quaid), Луї Госсе мол. (Louis Gossett Jr.), Брайон Джеймс (Brion James), Керолін МакКормік (Carolyn McCormick), Річард Маркус (Richard Marcus), Бампер Робінсон (Bumper Robinson), Джим Мапп (Jim Mapp), Ленс Кервін (Lance Kerwin), Скотт Крафт (Scott Kraft), Лу Майклс (Lou Michaels), Енді Джиро (Andy Geer), Генрі Столов (Henry Stolow), Херб Андрес (Herb Andress), Данмар (Danmar), Менді Гаусенбергер (Mandy Hausenberger)

Сюжет:
Під час галактичної війни між людьми і расою рептилій в одній з жорстоких сутичок на околицях гористої планетки в системі подвійної зірки пілот Вілліс Девідж збиває машину чужого, але тут же отримує кілька влучень і виходить із бою. Єдине місце, де можна вижити після падіння - та сама планетка. Але впавши, він виявляє, що збитий ним чужий не загинув. Смертельні вороги виявляються замкнені на планеті, і вибір простий - знищити один одного або укласти перемир'я і спробувати врятуватися. Що виявиться сильніше: бажання жити або ненависть і біль за загиблих?


Тривалість: 01:48:09
Якість: AVC
Відео:
кодек:
розмір кадру: 1024x430
бітрейт: 2500 кб/с

Аудіо # 1: &
мова: українська
переклад: двоголосий закадровий
кодек: 2.0
бітрейт: 192 кб/с

Аудіо # 2: VHS
мова: українська
переклад: двоголосий закадровий
кодек: 2.0
бітрейт: 192 кб/с

Аудіо # 3:
мова: англійська
переклад: оригінал
кодек: 5.1
бітрейт: 448 кб/с

Субтитри:
мова: англійська
тип: програмні (м'які)
формат: *.srt
Скріншоти



Info
General
Unique ID : 254031631574134552283789366110401127501 (0xBF1CB66D69D9AA35AFA420F9DABCE44D)
Complete name : G:\Майбутні релізи\Enemy Mine (1985) AVC[Ukr][Eng][Sub Eng][Hurtom].
Format :
Format version : Version 4 / Version 2
File size : 2.52 GiB
Duration : 1 h 48 min
Overall bit rate : 3 334 kb/s
Movie name : Enemy Mine (1985) AVC[Ukr][Eng][Sub Eng][Hurtom]
Encoded date : UTC 2018-06-26 18:04:24
Writing application : v9.8.0 ('Kuglblids') 64bit
Writing library : libebml v1.3.4 + v1.4.5
Cover : Yes
Attachments : cover.jpg

Video
ID : 1
Format : AVC
Format/Info : Advanced Video Codec
Format profile : [email protected]
Format settings : CABAC / 8 Ref Frames
Format settings, CABAC : Yes
Format settings, ReFrames : 8 frames
Codec ID : V_MPEG4/ISO/AVC
Duration : 1 h 48 min
Bit rate : 2 500 kb/s
Width : 1 024 pixels
Height : 430 pixels
Display aspect ratio : 2.40:1
Frame rate mode : Constant
Frame rate : 23.976 (24000/1001) FPS
Color space : YUV
Chroma subsampling : 4:2:0
Bit depth : 8 bits
Scan type : Progressive
Bits/(Pixel*Frame) : 0.237
Stream size : 1.89 GiB (75%)
Writing library : core 125 r2200 999b753
Encoding settings : cabac=1 / ref=8 / deblock=1:-2:-2 / analyse=0x3:0x113 / me=umh / subme=10 / psy=1 / psy_rd=1.00:0.10 / mixed_ref=1 / me_range=32 / chroma_me=1 / trellis=2 / 8x8dct=1 / cqm=0 / deadzone=21,11 / fast_pskip=0 / chroma_qp_offset=-3 / threads=3 / lookahead_threads=1 / sliced_threads=0 / nr=0 / decimate=0 / interlaced=0 / bluray_compat=0 / constrained_intra=0 / bframes=8 / b_pyramid=2 / b_adapt=2 / b_bias=0 / direct=1 / weightb=1 / open_gop=1 / weightp=2 / keyint=240 / keyint_min=23 / scenecut=40 / intra_refresh=0 / rc_lookahead=40 / rc=2pass / mbtree=1 / bitrate=2500 / ratetol=1.0 / qcomp=0.60 / qpmin=0 / qpmax=69 / qpstep=4 / cplxblur=20.0 / qblur=0.5 / ip_ratio=1.40 / aq=1:1.00
Language : English
Default : Yes
Forced : No

Audio #1
ID : 2
Format : AC-3
Format/Info : Audio Coding 3
Codec ID : A_AC3
Duration : 1 h 48 min
Bit rate mode : Constant
Bit rate : 192 kb/s
Channel(s) : 2 channels
Channel positions : Front: L R
Sampling rate : 48.0 kHz
Frame rate : 31.250 FPS (1536 SPF)
Bit depth : 16 bits
Compression mode : Lossy
Stream size : 149 MiB (6%)
Title : [UA-DVO-2+2]
Language : Ukrainian
Service kind : Complete Main
Default : Yes
Forced : Yes

Audio #2
ID : 3
Format : AC-3
Format/Info : Audio Coding 3
Codec ID : A_AC3
Duration : 1 h 48 min
Bit rate mode : Constant
Bit rate : 192 kb/s
Channel(s) : 2 channels
Channel positions : Front: L R
Sampling rate : 48.0 kHz
Frame rate : 31.250 FPS (1536 SPF)
Bit depth : 16 bits
Compression mode : Lossy
Stream size : 149 MiB (6%)
Title : [UA-DVO-1+1]
Language : Ukrainian
Service kind : Complete Main
Default : No
Forced : No

Audio #3
ID : 4
Format : AC-3
Format/Info : Audio Coding 3
Codec ID : A_AC3
Duration : 1 h 48 min
Bit rate mode : Constant
Bit rate : 448 kb/s
Channel(s) : 4 channels
Channel positions : Front: L C R, Back: C
Sampling rate : 48.0 kHz
Frame rate : 31.250 FPS (1536 SPF)
Bit depth : 16 bits
Compression mode : Lossy
Stream size : 347 MiB (13%)
Language : English
Service kind : Complete Main
Default : No
Forced : No

Text
ID : 5
Format : UTF-8
Codec ID : S_TEXT/UTF8
Codec ID/Info : UTF-8 Plain Text
Duration : 1 h 42 min
Bit rate : 34 b/s
Count of elements : 1032
Stream size : 25.6 KiB (0%)
Language : English
Default : No
Forced : No
Робота зі звуком: _oles
Запис із ТБ: xSlim
Постер: Тирік

Джерело: &
Особиста оцінка: 10 - без зайвих вагань рекомендую всім!


Срібний реліз (на рейтинг впливає 50% завантаженого)
 Трекер:    Зареєстрований   

Завантажити / скачати фільм українською



відео для новачків



 Зареєстрований:   2018-06-26 21:22
 Розмір:   2.52 GB 
 Оцінка фільму:   9.4/10 (Голосів: 31)
   
Інші релізи
   Ворог мій / Enemy Mine (1985) Remux 1080p 2xUkr/Eng | Sub Eng staf777  1 / 0   17.52 GB   2018-06-27 18:24 
   Ворог мій / Enemy Mine (1985) 2xUkr/Eng xslim  4 / 0   2.19 GB   2014-02-13 05:43 
   Ворог мій / Enemy Mine (1985) 720p 2xUkr/Eng | Sub Eng BOOGud  2 / 0   5.4 GB   2014-02-12 20:08 
   Ворог мій / Enemy Mine (1985) urij546724  1 / 0   1.51 GB   2010-09-26 21:07 
don pedro 
Попереджень: 1
Попереджень: 1 


З нами з: 29.06.11
Востаннє: 23.09.18
Повідомлень: 12444

2018-06-26 20:49  
Чудовий класичний фільм за на менш гарним романом Баррі Лонгєра, за який він заслужено отримав у 1979-1980-му роках зразу все, що можна отримати - премії "Неб'юла", "Локус", і "Х'юго". Дуже раджу почитати і подивитись і те, і те. Така собі військова космічна робінзонада.
SrGr 
Свій


З нами з: 15.01.12
Востаннє: 23.09.18
Повідомлень: 54

2018-06-26 22:35  
На скільки я знаю, це перший фільм з комп'ютерними, а не намальованими, спецефектами.
don pedro написано:
Чудовий класичний фільм
+
ZASE 
Відео Гуртом - підтримка та поширення
Відео Гуртом - підтримка та поширення


З нами з: 14.04.09
Востаннє: 23.09.18
Повідомлень: 325

2018-06-27 19:19  
Дуже дякую!
Zaporoghets 
Частий відвідувач


З нами з: 08.05.13
Востаннє: 24.09.18
Повідомлень: 40

2018-06-27 21:38  
Чудовий фільм. В дитинстві дивився в кінотеатрі.
Щиро дякую!

Pit33 
Новенький


З нами з: 16.04.12
Востаннє: 23.09.18
Повідомлень: 20

2018-06-28 10:26  
Класика жанру...
eukuk 
Новенький


З нами з: 15.03.13
Востаннє: 22.09.18
Повідомлень: 10

2018-06-29 17:52  
це дуже хороший фільм!
Krutyvuss 
Свій


З нами з: 01.08.10
Востаннє: 21.09.18
Повідомлень: 81

2018-07-02 08:57  
У дитинстві кілька різів бігав на цей фільм. Суперовий!
Ваш часовий пояс: GMT + 2 Години

Нова тема   Відповісти